Loading...
Error

Скачать Пила 8 / Jigsaw (Майкл Спириг, Питер Спириг) [2017, ужасы, триллер, криминал, детектив, WEB-DL] [720p] [Ukr DUB] + [Orig] (Eng) + [Sub] (Eng) торрент без регистрации

Статистика раздачи
Размер:  3,01 GB   |    Скачан:  75 раз
Сидов:  1  [  0 KB/s  ]  
 
 
 
Автор Сообщение

leon030982

[] 

Пила 8 / Jigsaw




Год выхода : 2017
Жанр : ужасы, триллер, криминал, детектив
Страна : США
Продолжительность : 01:32:15
Перевод: Украинский (дублированный)

Режиссер : Майкл Спириг, Питер Спириг

В главных ролях: Мэтт Пассмор, Тобин Белл, Каллум Кит Ренни, Ханна Андерсон, Кле Беннетт, Лора Вандервурт, Пол Браунштейн, Мандела Ван Пиблз, Бриттани Аллен, Джозиа Блэк

Описание: В городе обнаруживают несколько тел, обладатели которых встретили определенно не лучший конец. Все улики указывают на одного человека: Джона Крамера. Но как это возможно? Человек, известный как Пила, мертв уже более десяти лет. Неужели все-таки нашелся тот, кто рискнул подобрать мантию жестокого маньяка?



Файл
Качество : WEB-DL 720p
Формат видео : MKV
Видео : AVC, 1280 х 532, 23.976 fps, ~4110 kbps avg
Звук 1 : 48 kHz, AC3 Dolby Digital, 2 ch, ~192 kbps - Ukr DUB
Звук 2 : 48 kHz, AC3 Dolby Digital, 6 ch, ~192 kbps - Eng
Субтитры : English

Релиз --
General
Unique ID : 253065279943552648043396685626540507803 (0xBE62999D0F7B4EE78BF5B7E5E43F429B)
Complete name : F:\Jigsaw (2017) WEB-DL 720p[UKR_ENG] [Hurtom].mkv
Format : Matroska
Format version : Version 4 / Version 2
File size : 3.01 GiB
Duration : 1 h 32 min
Overall bit rate : 4 685 kb/s
Encoded date : UTC 2018-01-10 17:57:06
Writing application : mkvmerge v14.0.0 ('Flow') 64bit
Writing library : libebml v1.3.4 + libmatroska v1.4.5
Cover : Yes
Attachments : cover

Video
ID : 1
Format : AVC
Format/Info : Advanced Video Codec
Format profile : Main@L3.1
Format settings : 2 Ref Frames
Format settings, CABAC : No
Format settings, RefFrames : 2 frames
Codec ID : V_MPEG4/ISO/AVC
Duration : 1 h 32 min
Bit rate : 4 015 kb/s
Width : 1 280 pixels
Height : 532 pixels
Display aspect ratio : 2.40:1
Frame rate mode : Constant
Frame rate : 23.976 (24000/1001) FPS
Color space : YUV
Chroma subsampling : 4:2:0
Bit depth : 8 bits
Scan type : Progressive
Bits/(Pixel*Frame) : 0.246
Stream size : 2.58 GiB (86%)
Language : English
Default : Yes
Forced : No
Color range : Limited
Color primaries : BT.709
Transfer characteristics : BT.709
Matrix coefficients : BT.709

Audio #1
ID : 2
Format : AC-3
Format/Info : Audio Coding 3
Format settings, Endianness : Big
Codec ID : A_AC3
Duration : 1 h 32 min
Bit rate mode : Constant
Bit rate : 192 kb/s
Channel(s) : 2 channels
Channel positions : Front: L R
Sampling rate : 48.0 kHz
Frame rate : 31.250 FPS (1536 SPF)
Bit depth : 16 bits
Compression mode : Lossy
Stream size : 126 MiB (4%)
Title : AC3 2.0 @ 192 kbps
Language : Ukrainian
Service kind : Complete Main
Default : Yes
Forced : Yes

Audio #2
ID : 3
Format : AC-3
Format/Info : Audio Coding 3
Format settings, Endianness : Big
Codec ID : A_AC3
Duration : 1 h 32 min
Bit rate mode : Constant
Bit rate : 384 kb/s
Channel(s) : 6 channels
Channel positions : Front: L C R, Side: L R, LFE
Sampling rate : 48.0 kHz
Frame rate : 31.250 FPS (1536 SPF)
Bit depth : 16 bits
Compression mode : Lossy
Stream size : 253 MiB (8%)
Title : AC3 5.1 @ 384 kbps
Language : English
Service kind : Complete Main
Default : No
Forced : No

Text
ID : 4
Format : UTF-8
Codec ID : S_TEXT/UTF8
Codec ID/Info : UTF-8 Plain Text
Language : English
Default : No
Forced : No

Menu
00:00:00.000 : en:1
00:10:40.000 : en:2
00:22:40.000 : en:3
00:31:30.000 : en:4
00:43:10.000 : en:5
00:52:59.000 : en:6
01:04:14.000 : en:7
01:13:58.000 : en:8
01:25:00.000 : en:9



Скачать Пила.8.Jigsaw.(Майкл.Спириг.Питер.Спириг).[2017.ужасы.триллер.криминал.детектив.WEB-DL].[720p].[Ukr.DUB].+.[Orig].(Eng).+.[Sub].(Eng).torrent без регистрации
Золото ЗОЛОТАЯ РАЗДАЧА! СКАЧАННОЕ НЕ ЗАСЧИТЫВАЕТСЯ! Золото
Дата: Зарегистрирован   [ Тип: внутренний ] Как тут cкачать?
MAGNET ссылка
MAGNET ссылка


Скачать .torrent

16 KB

Статус: проверено DHT
Скачан: торрент - 75 раз, раздача полностью - 49 раз
Размер: 3,01 GB
Оценка:  - (Голосов: 0)
Поблагодарили: 1
Поделиться ссылкой на эту раздачу с друзьями:
В контактеFacebookОдноклассникиTwitterLivejournalМой МирLiveinternet
 

 
Показать сообщения:    


Вы не можете начинать темы
Вы не можете отвечать на сообщения
Вы не можете редактировать свои сообщения
Вы не можете удалять свои сообщения
Вы не можете голосовать в опросах
Вы не можете прикреплять файлы к сообщениям
Вы можете скачивать файлы