Loading...
Error

Скачать Ночь воспоминаний / Night of Memories / Gieokeui bam (Чан Хан Чжун) [2017, триллер, детектив, WEBRip] [720p] [MVO (Izanami, den904 & DeadSno)] торрент без регистрации

Статистика раздачи
Размер:  2,41 GB   |    Скачан:  34 раза
Сидов:  5  [  0 KB/s  ]  
 
 
 
Автор Сообщение

МихаНЕзатор

[] 

Информация о фильме
Название: Ночь воспоминаний
Оригинальное название: Night of Memories / Gieokeui bam
Год выхода: 2017
Жанр: мистика, триллер, детектив
Режиссер: Чан Хан Джун

В ролях: Мун Сон Гын, На Ён Хи, Кан Ха Ныль, Ким Му Ёль

О фильме: Чин-сок обожает старшего брата Ю-сока и готов ради него на многое. Однажды Ю-сока похищают, и парень возвращается через 19 дней, но ничего не помнит о произошедшем. Да и сам он как будто другой человек. Теперь Чин-соку предстоит выяснить, что случилось с братом, и это будет непросто.

Релиз от:

Страна: Южная Корея
Продолжительность: 01:48:38
Перевод: Любительский, многоголосый, закадровый (Студия "Колобок" и "XDUB DORAMA", перевод: ФСГ "Азалии" [Хозяин и Овёс], закадровый текст читали: Den904, DeadSn0 и Izanami)

Файл
Кодек: V_MPEG4/ISO/AVC
Качество: WEBRip 720p
Видео: 1280x720 (16:9), 29.970 FPS, 3000 kb/s
Звук: AC-3, 48.0 kHz, 2ch, 192 kb/s
Субтитры: нет

АНОНСЫ ПОПУЛЯРНЫХ РАЗДАЧ
General
Unique ID : 218925572552290795263157408405783722302 (0xA4B388156F1E33CF958138D56402393E)
Complete name : Ночь воспоминаний [Студия Колобок_XDUB DORAMA].mkv
Format : Matroska
Format version : Version 4 / Version 2
File size : 2.41 GiB
Duration : 1 h 48 min
Overall bit rate : 3 174 kb/s
Encoded date : UTC 2018-01-05 13:11:57
Writing application : mkvmerge v6.2.0 ('Promised Land') built on Apr 28 2013 12:22:01
Writing library : libebml v1.3.0 + libmatroska v1.4.0

Video
ID : 1
Format : AVC
Format/Info : Advanced Video Codec
Format profile : Baseline@L3
Format settings, CABAC : No
Format settings, RefFrames : 1 frame
Format settings, GOP : M=1, N=30
Codec ID : V_MPEG4/ISO/AVC
Duration : 1 h 48 min
Bit rate : 3 000 kb/s
Width : 1 280 pixels
Height : 720 pixels
Display aspect ratio : 16:9
Frame rate mode : Constant
Frame rate : 29.970 (29970/1000) FPS
Color space : YUV
Chroma subsampling : 4:2:0
Bit depth : 8 bits
Scan type : Progressive
Bits/(Pixel*Frame) : 0.109
Stream size : 2.22 GiB (92%)
Writing library : x264 core 116 r2074 2641b9e
Encoding settings : cabac=0 / ref=1 / deblock=1:0:0 / analyse=0x1:0x131 / me=dia / subme=3 / psy=1 / psy_rd=1.00:0.00 / mixed_ref=0 / me_range=16 / chroma_me=1 / trellis=1 / 8x8dct=0 / cqm=0 / deadzone=21,11 / fast_pskip=1 / chroma_qp_offset=0 / threads=6 / sliced_threads=0 / nr=0 / decimate=1 / interlaced=0 / bluray_compat=0 / constrained_intra=0 / bframes=0 / weightp=0 / keyint=30 / keyint_min=16 / scenecut=40 / intra_refresh=0 / rc_lookahead=30 / rc=abr / mbtree=1 / bitrate=3000 / ratetol=1.0 / qcomp=0.60 / qpmin=1 / qpmax=51 / qpstep=4 / ip_ratio=1.40 / aq=1:1.00
Default : Yes
Forced : No

Audio
ID : 2
Format : AC-3
Format/Info : Audio Coding 3
Format settings, Endianness : Big
Codec ID : A_AC3
Duration : 1 h 48 min
Bit rate mode : Constant
Bit rate : 192 kb/s
Channel(s) : 2 channels
Channel positions : Front: L R
Sampling rate : 48.0 kHz
Frame rate : 31.250 FPS (1536 SPF)
Bit depth : 16 bits
Compression mode : Lossy
Stream size : 149 MiB (6%)
Service kind : Complete Main
Default : Yes
Forced : No



Скачать Ночь.воспоминаний.Night.of.Memories.Gieokeui.bam.(Чан.Хан.Чжун).[2017.триллер.детектив.WEBRip].[720p].[MVO.(Izanami.den904.&.DeadSno)].torrent без регистрации
Золото ЗОЛОТАЯ РАЗДАЧА! СКАЧАННОЕ НЕ ЗАСЧИТЫВАЕТСЯ! Золото
Дата: Зарегистрирован   [ Тип: внешний ] Как тут cкачать?
MAGNET ссылка
MAGNET ссылка


Скачать .torrent

13 KB

Статус: проверено DHT
Скачан: торрент - 34 раз, раздача полностью - 33 раз
Размер: 2,41 GB
Оценка:  - (Голосов: 0)
Поблагодарили: 2
Поделиться ссылкой на эту раздачу с друзьями:
В контактеFacebookОдноклассникиTwitterLivejournalМой МирLiveinternet
 

 
Показать сообщения:    


Вы не можете начинать темы
Вы не можете отвечать на сообщения
Вы не можете редактировать свои сообщения
Вы не можете удалять свои сообщения
Вы не можете голосовать в опросах
Вы не можете прикреплять файлы к сообщениям
Вы можете скачивать файлы