Loading...
Error

Скачать Гарри Поттер и кубок огня / Harry Potter and the Goblet of Fire (Майк Ньюэлл) [2005, фэнтези, приключения, экранизация, BDRemux] [2160p (4K HDR)] [Dub]+2x[DVO]+[MVO]+[MVO Ukr]+3[AVO]+[Eng]+[Ger]+[Sub Rus, Ukr, Eng] торрент без регистрации

Статистика раздачи
Размер:  62,09 GB   |    Скачан:  8 раз
Сидов:  2  [  0 KB/s  ]  
 
 
 
Автор Сообщение

МихаНЕзатор

[] 

Информация о фильме
Название: Гарри Поттер и кубок огня
Оригинальное название: Harry Potter and the Goblet of Fire
Год выхода: 2005
Жанр: Фэнтези, детектив, приключения, семейный, экранизация
Режиссер: Майк Ньюэлл

В ролях: Дэниэл Рэдклифф, Эмма Уотсон, Руперт Гринт, Алан Рикман, Эрик Сайкес, Тимоти Сполл, Дэвид Теннант, Марк Уильямс, Джеймс Фелпс, Оливер Фелпс, Бонни Райт, Джефф Роул, Роберт Паттинсон, Джейсон Айзекс, Том Фелтон, Станислав Яневски, Роберт Харди, Филип Рам, Оливия Хиггинботтом, Эшли Артус, Алекс Палмер, Джеральдин Сомервилль, Девон Мюррэй, Афшан Азад

О фильме: Летом Гарри вместе со своими друзьями отправляется на Чемпионат мира по квиддичу. Неожиданно ночью на их палатный городок нападают Пожиратели смерти (соратники Волан-де-Морта). Вокруг сплошная паника, но работникам Министерства магии удается прогнать злодеев. Однако, устрашающая Черная метка, оставленная в небе одним из пожирателей, приводит всех в ужас. Ведь это может означать лишь одно — их лорд жив! Очередной год обучения начинается с того, что в школе Хогвартс будет происходить Турнир Трёх Волшебников. К участию допускаются ученики, достигшие 17 лет. Кубок огня выбирает троих достойных претендентов. Но в последнее мгновение он выбрасывает записку с еще одним именем — Гарри Поттер. И с этого момента жизнь Гарри в большой опасности, ведь ему нужно пройти очень сложные испытания. Чего будет стоить для Гарри его участие в турнире?



Страна: Великобритания, США
Студия: Heyday Films, Patalex IV Productions Limited, Warner Bros. Pictures
Продолжительность: 02:37:05
Перевод: Дублированный, профессиональный двухголосый, авторский

Файл
Кодек: MPEG-H HEVC HDR Video
Качество: BDRemux 2160p
Видео: 43.9 Mбит/с, 3840x2160, 23.976 fps

Аудио 1: Русский 48 kHz, AC3, 6 ch 448 Kbps - Дубляж
Аудио 2: Русский 48 kHz, AC3, 6 ch 448 Kbps - Профессиональный двухголосый (П. Гланц и И. Королёва)
Аудио 3: Русский 48 kHz, AC3, 6 ch 448 Kbps - Профессиональный двухголосый (Tycoon)
Аудио 4: Русский 48 kHz, DTS, 6 ch, 1509 Kbps - Авторский (Ю. Сербин)
Аудио 5: Русский 48 kHz, DTS, 6 ch, 1509 Kbps - Авторский (С. Рябов)
Аудио 6: Русский 48 kHz, DTS, 6 ch, 1509 Kbps - Авторский (Л. Володарский)
Аудио 7: Украинский 48 kHz, AC3, 6 ch 384 Kbps - Профессиональный многоголосый (Новый канал)
Аудио 8: Украинский 48 kHz, AC3, 6 ch 640 Kbps - Профессиональный многоголосый (Інтер)
Аудио 9: Английский 48 kHz, AC3, 6 ch, 448 Kbps - Оригинал
Аудио 10: Английский 48 kHz, DTS-X MA, 8 ch, 4051 Kbps - Оригинал
Аудио 11: Английский 48 kHz, AC3, 2 ch, 192 Kbps - Оригинал+Audiodeion
Аудио 12: Немецкий 48 kHz, DTS-HD MA, 6 ch, 2314 Kbps
Субтитры: Русские (Форсированные, полные), украинские (полные), английские (полные)

АНОНСЫ ПОПУЛЯРНЫХ РАЗДАЧ

Видео
Идентификатор : 1
Формат : HEVC
Формат/Информация : High Efficiency Video Coding
Профиль формата : Main 10@L5.1@High
Идентификатор кодека : V_MPEGH/ISO/HEVC
Продолжительность : 2 ч. 37 м.
Битрейт : 43,9 Мбит/сек
Ширина : 3840 пикселей
Высота : 2160 пикселей
Соотношение сторон : 16:9
Режим частоты кадров : Постоянный
Частота кадров : 23,976 (24000/1001) кадра/сек
Цветовое пространство : YUV
Субдискретизация насыщенности : 4:2:0 (Type 2)
Битовая глубина : 10 бит
Бит/(Пиксели*Кадры) : 0.221
Размер потока : 48,1 Гбайт (78%)
Заголовок : Harry.Potter.And.The.Goblet.Of.Fire.2005.2160p.BluRay
Библиотека кодирования : ATEME Titan File 3.8.3 (4.8.3.0)
Default : Да
Forced : Нет
Цветовой диапазон : Limited
Основные цвета : BT.2020
Характеристики трансфера : PQ
Коэффициенты матрицы : BT.2020 non-constant
MasteringDisplay_ColorPrimaries : R: x=0.680000 y=0.320000, G: x=0.265000 y=0.690000, B: x=0.150000 y=0.060000, White point: x=0.312700 y=0.329000
MasteringDisplay_Luminance : min: 0.0050 cd/m2, max: 4000.0000 cd/m2
MaxCLL : 2848 cd/m2
MaxFALL : 617 cd/m2

Аудио #1
Идентификатор : 2
Формат : AC-3
Формат/Информация : Audio Coding 3
Параметр Endianness формата : Big
Идентификатор кодека : A_AC3
Продолжительность : 2 ч. 37 м.
Вид битрейта : Постоянный
Битрейт : 448 Кбит/сек
Каналы : 6 каналов
Расположение каналов : Front: L C R, Side: L R, LFE
Частота : 48,0 КГц
Частота кадров : 31,250 кадров/сек (1536 SPF)
Битовая глубина : 16 бит
Метод сжатия : С потерями
Размер потока : 503 Мбайт (1%)
Заголовок : AC3 5.1 @ 448 кб/с - (Дублированный) Blu-ray CEE
Язык : Russian
ServiceKind/String : Complete Main
Default : Да
Forced : Нет

Аудио #2
Идентификатор : 3
Формат : AC-3
Формат/Информация : Audio Coding 3
Параметр Endianness формата : Big
Идентификатор кодека : A_AC3
Продолжительность : 2 ч. 37 м.
Вид битрейта : Постоянный
Битрейт : 448 Кбит/сек
Каналы : 6 каналов
Расположение каналов : Front: L C R, Side: L R, LFE
Частота : 48,0 КГц
Частота кадров : 31,250 кадров/сек (1536 SPF)
Битовая глубина : 16 бит
Метод сжатия : С потерями
Размер потока : 503 Мбайт (1%)
Заголовок : AC3 5.1 @ 448 кб/с - (Двухголосый) П. Гланц и И. Королёва
Язык : Russian
ServiceKind/String : Complete Main
Default : Нет
Forced : Нет

Аудио #3
Идентификатор : 4
Формат : AC-3
Формат/Информация : Audio Coding 3
Параметр Endianness формата : Big
Идентификатор кодека : A_AC3
Продолжительность : 2 ч. 37 м.
Вид битрейта : Постоянный
Битрейт : 448 Кбит/сек
Каналы : 6 каналов
Расположение каналов : Front: L C R, Side: L R, LFE
Частота : 48,0 КГц
Частота кадров : 31,250 кадров/сек (1536 SPF)
Битовая глубина : 16 бит
Метод сжатия : С потерями
Размер потока : 503 Мбайт (1%)
Заголовок : AC3 5.1 @ 448 кб/с - (Двухголосый) Tycoon
Язык : Russian
ServiceKind/String : Complete Main
Default : Нет
Forced : Нет

Аудио #4
Идентификатор : 5
Формат : DTS
Формат/Информация : Digital Theater Systems
Режим : 16
Параметр Endianness формата : Big
Идентификатор кодека : A_DTS
Продолжительность : 2 ч. 37 м.
Вид битрейта : Постоянный
Битрейт : 1509 Кбит/сек
Каналы : 6 каналов
Расположение каналов : Front: L C R, Side: L R, LFE
Частота : 48,0 КГц
Частота кадров : 93,750 кадра/сек (512 SPF)
Битовая глубина : 16 бит
Метод сжатия : С потерями
Размер потока : 1,66 Гбайт (3%)
Заголовок : DTS 5.1 @ 1509 кб/с - (Одноголосый) Ю. Сербин
Язык : Russian
Default : Нет
Forced : Нет

Аудио #5
Идентификатор : 6
Формат : DTS
Формат/Информация : Digital Theater Systems
Режим : 16
Параметр Endianness формата : Big
Идентификатор кодека : A_DTS
Продолжительность : 2 ч. 37 м.
Вид битрейта : Постоянный
Битрейт : 755 Кбит/сек
Каналы : 6 каналов
Расположение каналов : Front: L C R, Side: L R, LFE
Частота : 48,0 КГц
Частота кадров : 93,750 кадра/сек (512 SPF)
Битовая глубина : 24 бит
Метод сжатия : С потерями
Размер потока : 848 Мбайт (1%)
Заголовок : DTS 5.1 @ 1509 кб/с - (Одноголосый) С. Рябов
Язык : Russian
Default : Нет
Forced : Нет

Аудио #6
Идентификатор : 7
Формат : DTS
Формат/Информация : Digital Theater Systems
Режим : 16
Параметр Endianness формата : Big
Идентификатор кодека : A_DTS
Продолжительность : 2 ч. 37 м.
Вид битрейта : Постоянный
Битрейт : 1509 Кбит/сек
Каналы : 6 каналов
Расположение каналов : Front: L C R, Side: L R, LFE
Частота : 48,0 КГц
Частота кадров : 93,750 кадра/сек (512 SPF)
Битовая глубина : 16 бит
Метод сжатия : С потерями
Размер потока : 1,66 Гбайт (3%)
Заголовок : DTS 5.1 @ 1509 кб/с - (Одноголосый) Л. Володарский
Язык : Russian
Default : Нет
Forced : Нет

Аудио #7
Идентификатор : 8
Формат : AC-3
Формат/Информация : Audio Coding 3
Параметр Endianness формата : Big
Идентификатор кодека : A_AC3
Продолжительность : 2 ч. 37 м.
Вид битрейта : Постоянный
Битрейт : 384 Кбит/сек
Каналы : 6 каналов
Расположение каналов : Front: L C R, Side: L R, LFE
Частота : 48,0 КГц
Частота кадров : 31,250 кадров/сек (1536 SPF)
Битовая глубина : 16 бит
Метод сжатия : С потерями
Задержка видео : 1 с. 0 мс.
Размер потока : 431 Мбайт (1%)
Заголовок : AC3 5.1 @ 384 кб/с - (Многоголосый) Новий канал
Язык : Ukrainian
ServiceKind/String : Complete Main
Default : Нет
Forced : Нет

Аудио #8
Идентификатор : 9
Формат : AC-3
Формат/Информация : Audio Coding 3
Параметр Endianness формата : Big
Идентификатор кодека : A_AC3
Продолжительность : 2 ч. 37 м.
Вид битрейта : Постоянный
Битрейт : 192 Кбит/сек
Каналы : 2 канала
Расположение каналов : Front: L R
Частота : 48,0 КГц
Частота кадров : 31,250 кадров/сек (1536 SPF)
Битовая глубина : 16 бит
Метод сжатия : С потерями
Размер потока : 216 Мбайт (0%)
Заголовок : AC3 2.0 @ 192 кб/с - (Многоголосый) Інтер
Язык : Ukrainian
ServiceKind/String : Complete Main
Default : Нет
Forced : Нет

Аудио #9
Идентификатор : 10
Формат : AC-3
Формат/Информация : Audio Coding 3
Параметр Endianness формата : Big
Идентификатор кодека : A_AC3
Продолжительность : 2 ч. 37 м.
Вид битрейта : Постоянный
Битрейт : 448 Кбит/сек
Каналы : 6 каналов
Расположение каналов : Front: L C R, Side: L R, LFE
Частота : 48,0 КГц
Частота кадров : 31,250 кадров/сек (1536 SPF)
Битовая глубина : 16 бит
Метод сжатия : С потерями
Размер потока : 503 Мбайт (1%)
Заголовок : AC3 5.1 @ 448 кб/с - (Оригинал)
Язык : English
ServiceKind/String : Complete Main
Default : Нет
Forced : Нет

Аудио #10
Идентификатор : 11
Формат : DTS
Формат/Информация : Digital Theater Systems
Профиль формата : X / MA / Core
Режим : 16
Параметр Endianness формата : Big
Идентификатор кодека : A_DTS
Продолжительность : 2 ч. 37 м.
Вид битрейта : Переменный / Переменный / Постоянный
Битрейт : 4051 Кбит/сек / 4051 Кбит/сек / 1509 Кбит/сек
Каналы : Object Based / 8 каналов / 6 каналов
Расположение каналов : Object Based / Front: L C R, Side: L R, Back: L R, LFE / Front: L C R, Side: L R, LFE
Частота : / 48,0 КГц / 48,0 КГц
Частота кадров : 93,750 кадра/сек (512 SPF)
Битовая глубина : / 24 бит / 24 бит
Метод сжатия : / Lossless / Lossy
Размер потока : 4,45 Гбайт (7%)
Заголовок : DTS-HD X/MA [Original]
Язык : English
Default : Нет
Forced : Нет

Аудио #11
Идентификатор : 12
Формат : AC-3
Формат/Информация : Audio Coding 3
Режим : Dolby Digital
Параметр Endianness формата : Big
Идентификатор кодека : A_AC3
Продолжительность : 2 ч. 37 м.
Вид битрейта : Постоянный
Битрейт : 192 Кбит/сек
Каналы : 2 канала
Расположение каналов : Front: L R
Частота : 48,0 КГц
Частота кадров : 31,250 кадров/сек (1536 SPF)
Битовая глубина : 16 бит
Метод сжатия : С потерями
Размер потока : 216 Мбайт (0%)
Заголовок : ENG (Audiodescription)
Язык : English
ServiceKind/String : Complete Main
Default : Нет
Forced : Нет

Аудио #12
Идентификатор : 13
Формат : DTS
Формат/Информация : Digital Theater Systems
Профиль формата : MA / Core
Режим : 16
Параметр Endianness формата : Big
Идентификатор кодека : A_DTS
Продолжительность : 2 ч. 37 м.
Вид битрейта : Переменный / Постоянный
Битрейт : 2314 Кбит/сек / 1509 Кбит/сек
Каналы : 6 каналов
Расположение каналов : Front: L C R, Side: L R, LFE
Частота : 48,0 КГц
Частота кадров : 93,750 кадра/сек (512 SPF)
Битовая глубина : 16 бит
Метод сжатия : Без потерь / Lossy
Размер потока : 2,54 Гбайт (4%)
Заголовок : DTS-HD MA [German]
Язык : German
Default : Нет
Forced : Нет

Текст #1
Идентификатор : 14
Формат : UTF-8
Идентификатор кодека : S_TEXT/UTF8
Идентификатор кодека/Информация : UTF-8 Plain Text
Продолжительность : 2 ч. 36 м.
Битрейт : 0 бит/сек
ElementCount : 13
Размер потока : 482 байт (0%)
Заголовок : Русские (Форсированные)
Язык : Russian
Default : Да
Forced : Да

Текст #2
Идентификатор : 15
Формат : UTF-8
Идентификатор кодека : S_TEXT/UTF8
Идентификатор кодека/Информация : UTF-8 Plain Text
Продолжительность : 2 ч. 36 м.
Битрейт : 74 бит/сек
ElementCount : 1556
Размер потока : 85,4 Кбайт (0%)
Заголовок : Русские
Язык : Russian
Default : Нет
Forced : Нет

Текст #3
Идентификатор : 16
Формат : UTF-8
Идентификатор кодека : S_TEXT/UTF8
Идентификатор кодека/Информация : UTF-8 Plain Text
Продолжительность : 2 ч. 36 м.
Битрейт : 62 бит/сек
ElementCount : 1519
Размер потока : 71,1 Кбайт (0%)
Заголовок : Украинские
Язык : Ukrainian
Default : Нет
Forced : Нет

Текст #4
Идентификатор : 17
Формат : UTF-8
Идентификатор кодека : S_TEXT/UTF8
Идентификатор кодека/Информация : UTF-8 Plain Text
Продолжительность : 2 ч. 21 м.
Битрейт : 50 бит/сек
ElementCount : 1553
Размер потока : 52,2 Кбайт (0%)
Заголовок : Английские
Язык : English
Default : Нет
Forced : Нет

Меню
00:00:00.000 : en:Chapter 1
00:03:46.559 : en:Chapter 2
00:06:09.369 : en:Chapter 3
00:09:50.089 : en:Chapter 4
00:13:45.324 : en:Chapter 5
00:19:14.987 : en:Chapter 6
00:23:09.388 : en:Chapter 7
00:29:01.573 : en:Chapter 8
00:36:26.684 : en:Chapter 9
00:39:05.009 : en:Chapter 10
00:41:32.490 : en:Chapter 11
00:45:36.400 : en:Chapter 12
00:49:07.778 : en:Chapter 13
00:54:06.243 : en:Chapter 14
01:02:46.596 : en:Chapter 15
01:09:12.982 : en:Chapter 16
01:14:43.979 : en:Chapter 17
01:22:27.609 : en:Chapter 18
01:30:34.762 : en:Chapter 19
01:39:29.296 : en:Chapter 20
01:42:42.489 : en:Chapter 21
01:47:22.936 : en:Chapter 22
01:50:19.279 : en:Chapter 23
01:58:54.460 : en:Chapter 24
02:02:02.315 : en:Chapter 25
02:06:36.589 : en:Chapter 26
02:10:01.627 : en:Chapter 27
02:17:38.083 : en:Chapter 28
02:23:48.620 : en:Chapter 29

Видео
Идентификатор : 1
Формат : HEVC
Формат/Информация : High Efficiency Video Coding
Профиль формата : Main 10@L5.1@High
Идентификатор кодека : V_MPEGH/ISO/HEVC
Продолжительность : 2 ч. 37 м.
Битрейт : 43,9 Мбит/сек
Ширина : 3840 пикселей
Высота : 2160 пикселей
Соотношение сторон : 16:9
Режим частоты кадров : Постоянный
Частота кадров : 23,976 (24000/1001) кадра/сек
Цветовое пространство : YUV
Субдискретизация насыщенности : 4:2:0 (Type 2)
Битовая глубина : 10 бит
Бит/(Пиксели*Кадры) : 0.221
Размер потока : 48,1 Гбайт (78%)
Заголовок : Harry.Potter.And.The.Goblet.Of.Fire.2005.2160p.BluRay
Библиотека кодирования : ATEME Titan File 3.8.3 (4.8.3.0)
Default : Да
Forced : Нет
Цветовой диапазон : Limited
Основные цвета : BT.2020
Характеристики трансфера : PQ
Коэффициенты матрицы : BT.2020 non-constant
MasteringDisplay_ColorPrimaries : R: x=0.680000 y=0.320000, G: x=0.265000 y=0.690000, B: x=0.150000 y=0.060000, White point: x=0.312700 y=0.329000
MasteringDisplay_Luminance : min: 0.0050 cd/m2, max: 4000.0000 cd/m2
MaxCLL : 2848 cd/m2
MaxFALL : 617 cd/m2

Аудио #1
Идентификатор : 2
Формат : AC-3
Формат/Информация : Audio Coding 3
Параметр Endianness формата : Big
Идентификатор кодека : A_AC3
Продолжительность : 2 ч. 37 м.
Вид битрейта : Постоянный
Битрейт : 448 Кбит/сек
Каналы : 6 каналов
Расположение каналов : Front: L C R, Side: L R, LFE
Частота : 48,0 КГц
Частота кадров : 31,250 кадров/сек (1536 SPF)
Битовая глубина : 16 бит
Метод сжатия : С потерями
Размер потока : 503 Мбайт (1%)
Заголовок : AC3 5.1 @ 448 кб/с - (Дублированный) Blu-ray CEE
Язык : Russian
ServiceKind/String : Complete Main
Default : Да
Forced : Нет

Аудио #2
Идентификатор : 3
Формат : AC-3
Формат/Информация : Audio Coding 3
Параметр Endianness формата : Big
Идентификатор кодека : A_AC3
Продолжительность : 2 ч. 37 м.
Вид битрейта : Постоянный
Битрейт : 448 Кбит/сек
Каналы : 6 каналов
Расположение каналов : Front: L C R, Side: L R, LFE
Частота : 48,0 КГц
Частота кадров : 31,250 кадров/сек (1536 SPF)
Битовая глубина : 16 бит
Метод сжатия : С потерями
Размер потока : 503 Мбайт (1%)
Заголовок : AC3 5.1 @ 448 кб/с - (Двухголосый) П. Гланц и И. Королёва
Язык : Russian
ServiceKind/String : Complete Main
Default : Нет
Forced : Нет

Аудио #3
Идентификатор : 4
Формат : AC-3
Формат/Информация : Audio Coding 3
Параметр Endianness формата : Big
Идентификатор кодека : A_AC3
Продолжительность : 2 ч. 37 м.
Вид битрейта : Постоянный
Битрейт : 448 Кбит/сек
Каналы : 6 каналов
Расположение каналов : Front: L C R, Side: L R, LFE
Частота : 48,0 КГц
Частота кадров : 31,250 кадров/сек (1536 SPF)
Битовая глубина : 16 бит
Метод сжатия : С потерями
Размер потока : 503 Мбайт (1%)
Заголовок : AC3 5.1 @ 448 кб/с - (Двухголосый) Tycoon
Язык : Russian
ServiceKind/String : Complete Main
Default : Нет
Forced : Нет

Аудио #4
Идентификатор : 5
Формат : DTS
Формат/Информация : Digital Theater Systems
Режим : 16
Параметр Endianness формата : Big
Идентификатор кодека : A_DTS
Продолжительность : 2 ч. 37 м.
Вид битрейта : Постоянный
Битрейт : 1509 Кбит/сек
Каналы : 6 каналов
Расположение каналов : Front: L C R, Side: L R, LFE
Частота : 48,0 КГц
Частота кадров : 93,750 кадра/сек (512 SPF)
Битовая глубина : 16 бит
Метод сжатия : С потерями
Размер потока : 1,66 Гбайт (3%)
Заголовок : DTS 5.1 @ 1509 кб/с - (Одноголосый) Ю. Сербин
Язык : Russian
Default : Нет
Forced : Нет

Аудио #5
Идентификатор : 6
Формат : DTS
Формат/Информация : Digital Theater Systems
Режим : 16
Параметр Endianness формата : Big
Идентификатор кодека : A_DTS
Продолжительность : 2 ч. 37 м.
Вид битрейта : Постоянный
Битрейт : 755 Кбит/сек
Каналы : 6 каналов
Расположение каналов : Front: L C R, Side: L R, LFE
Частота : 48,0 КГц
Частота кадров : 93,750 кадра/сек (512 SPF)
Битовая глубина : 24 бит
Метод сжатия : С потерями
Размер потока : 848 Мбайт (1%)
Заголовок : DTS 5.1 @ 1509 кб/с - (Одноголосый) С. Рябов
Язык : Russian
Default : Нет
Forced : Нет

Аудио #6
Идентификатор : 7
Формат : DTS
Формат/Информация : Digital Theater Systems
Режим : 16
Параметр Endianness формата : Big
Идентификатор кодека : A_DTS
Продолжительность : 2 ч. 37 м.
Вид битрейта : Постоянный
Битрейт : 1509 Кбит/сек
Каналы : 6 каналов
Расположение каналов : Front: L C R, Side: L R, LFE
Частота : 48,0 КГц
Частота кадров : 93,750 кадра/сек (512 SPF)
Битовая глубина : 16 бит
Метод сжатия : С потерями
Размер потока : 1,66 Гбайт (3%)
Заголовок : DTS 5.1 @ 1509 кб/с - (Одноголосый) Л. Володарский
Язык : Russian
Default : Нет
Forced : Нет

Аудио #7
Идентификатор : 8
Формат : AC-3
Формат/Информация : Audio Coding 3
Параметр Endianness формата : Big
Идентификатор кодека : A_AC3
Продолжительность : 2 ч. 37 м.
Вид битрейта : Постоянный
Битрейт : 384 Кбит/сек
Каналы : 6 каналов
Расположение каналов : Front: L C R, Side: L R, LFE
Частота : 48,0 КГц
Частота кадров : 31,250 кадров/сек (1536 SPF)
Битовая глубина : 16 бит
Метод сжатия : С потерями
Задержка видео : 1 с. 0 мс.
Размер потока : 431 Мбайт (1%)
Заголовок : AC3 5.1 @ 384 кб/с - (Многоголосый) Новий канал
Язык : Ukrainian
ServiceKind/String : Complete Main
Default : Нет
Forced : Нет

Аудио #8
Идентификатор : 9
Формат : AC-3
Формат/Информация : Audio Coding 3
Параметр Endianness формата : Big
Идентификатор кодека : A_AC3
Продолжительность : 2 ч. 37 м.
Вид битрейта : Постоянный
Битрейт : 192 Кбит/сек
Каналы : 2 канала
Расположение каналов : Front: L R
Частота : 48,0 КГц
Частота кадров : 31,250 кадров/сек (1536 SPF)
Битовая глубина : 16 бит
Метод сжатия : С потерями
Размер потока : 216 Мбайт (0%)
Заголовок : AC3 2.0 @ 192 кб/с - (Многоголосый) Інтер
Язык : Ukrainian
ServiceKind/String : Complete Main
Default : Нет
Forced : Нет

Аудио #9
Идентификатор : 10
Формат : AC-3
Формат/Информация : Audio Coding 3
Параметр Endianness формата : Big
Идентификатор кодека : A_AC3
Продолжительность : 2 ч. 37 м.
Вид битрейта : Постоянный
Битрейт : 448 Кбит/сек
Каналы : 6 каналов
Расположение каналов : Front: L C R, Side: L R, LFE
Частота : 48,0 КГц
Частота кадров : 31,250 кадров/сек (1536 SPF)
Битовая глубина : 16 бит
Метод сжатия : С потерями
Размер потока : 503 Мбайт (1%)
Заголовок : AC3 5.1 @ 448 кб/с - (Оригинал)
Язык : English
ServiceKind/String : Complete Main
Default : Нет
Forced : Нет

Аудио #10
Идентификатор : 11
Формат : DTS
Формат/Информация : Digital Theater Systems
Профиль формата : X / MA / Core
Режим : 16
Параметр Endianness формата : Big
Идентификатор кодека : A_DTS
Продолжительность : 2 ч. 37 м.
Вид битрейта : Переменный / Переменный / Постоянный
Битрейт : 4051 Кбит/сек / 4051 Кбит/сек / 1509 Кбит/сек
Каналы : Object Based / 8 каналов / 6 каналов
Расположение каналов : Object Based / Front: L C R, Side: L R, Back: L R, LFE / Front: L C R, Side: L R, LFE
Частота : / 48,0 КГц / 48,0 КГц
Частота кадров : 93,750 кадра/сек (512 SPF)
Битовая глубина : / 24 бит / 24 бит
Метод сжатия : / Lossless / Lossy
Размер потока : 4,45 Гбайт (7%)
Заголовок : DTS-HD X/MA [Original]
Язык : English
Default : Нет
Forced : Нет

Аудио #11
Идентификатор : 12
Формат : AC-3
Формат/Информация : Audio Coding 3
Режим : Dolby Digital
Параметр Endianness формата : Big
Идентификатор кодека : A_AC3
Продолжительность : 2 ч. 37 м.
Вид битрейта : Постоянный
Битрейт : 192 Кбит/сек
Каналы : 2 канала
Расположение каналов : Front: L R
Частота : 48,0 КГц
Частота кадров : 31,250 кадров/сек (1536 SPF)
Битовая глубина : 16 бит
Метод сжатия : С потерями
Размер потока : 216 Мбайт (0%)
Заголовок : ENG (Audiodescription)
Язык : English
ServiceKind/String : Complete Main
Default : Нет
Forced : Нет

Аудио #12
Идентификатор : 13
Формат : DTS
Формат/Информация : Digital Theater Systems
Профиль формата : MA / Core
Режим : 16
Параметр Endianness формата : Big
Идентификатор кодека : A_DTS
Продолжительность : 2 ч. 37 м.
Вид битрейта : Переменный / Постоянный
Битрейт : 2314 Кбит/сек / 1509 Кбит/сек
Каналы : 6 каналов
Расположение каналов : Front: L C R, Side: L R, LFE
Частота : 48,0 КГц
Частота кадров : 93,750 кадра/сек (512 SPF)
Битовая глубина : 16 бит
Метод сжатия : Без потерь / Lossy
Размер потока : 2,54 Гбайт (4%)
Заголовок : DTS-HD MA [German]
Язык : German
Default : Нет
Forced : Нет

Текст #1
Идентификатор : 14
Формат : UTF-8
Идентификатор кодека : S_TEXT/UTF8
Идентификатор кодека/Информация : UTF-8 Plain Text
Продолжительность : 2 ч. 36 м.
Битрейт : 0 бит/сек
ElementCount : 13
Размер потока : 482 байт (0%)
Заголовок : Русские (Форсированные)
Язык : Russian
Default : Да
Forced : Да

Текст #2
Идентификатор : 15
Формат : UTF-8
Идентификатор кодека : S_TEXT/UTF8
Идентификатор кодека/Информация : UTF-8 Plain Text
Продолжительность : 2 ч. 36 м.
Битрейт : 74 бит/сек
ElementCount : 1556
Размер потока : 85,4 Кбайт (0%)
Заголовок : Русские
Язык : Russian
Default : Нет
Forced : Нет

Текст #3
Идентификатор : 16
Формат : UTF-8
Идентификатор кодека : S_TEXT/UTF8
Идентификатор кодека/Информация : UTF-8 Plain Text
Продолжительность : 2 ч. 36 м.
Битрейт : 62 бит/сек
ElementCount : 1519
Размер потока : 71,1 Кбайт (0%)
Заголовок : Украинские
Язык : Ukrainian
Default : Нет
Forced : Нет

Текст #4
Идентификатор : 17
Формат : UTF-8
Идентификатор кодека : S_TEXT/UTF8
Идентификатор кодека/Информация : UTF-8 Plain Text
Продолжительность : 2 ч. 21 м.
Битрейт : 50 бит/сек
ElementCount : 1553
Размер потока : 52,2 Кбайт (0%)
Заголовок : Английские
Язык : English
Default : Нет
Forced : Нет

Меню
00:00:00.000 : en:Chapter 1
00:03:46.559 : en:Chapter 2
00:06:09.369 : en:Chapter 3
00:09:50.089 : en:Chapter 4
00:13:45.324 : en:Chapter 5
00:19:14.987 : en:Chapter 6
00:23:09.388 : en:Chapter 7
00:29:01.573 : en:Chapter 8
00:36:26.684 : en:Chapter 9
00:39:05.009 : en:Chapter 10
00:41:32.490 : en:Chapter 11
00:45:36.400 : en:Chapter 12
00:49:07.778 : en:Chapter 13
00:54:06.243 : en:Chapter 14
01:02:46.596 : en:Chapter 15
01:09:12.982 : en:Chapter 16
01:14:43.979 : en:Chapter 17
01:22:27.609 : en:Chapter 18
01:30:34.762 : en:Chapter 19
01:39:29.296 : en:Chapter 20
01:42:42.489 : en:Chapter 21
01:47:22.936 : en:Chapter 22
01:50:19.279 : en:Chapter 23
01:58:54.460 : en:Chapter 24
02:02:02.315 : en:Chapter 25
02:06:36.589 : en:Chapter 26
02:10:01.627 : en:Chapter 27
02:17:38.083 : en:Chapter 28
02:23:48.620 : en:Chapter 29



Скачать Гарри.Поттер.и.кубок.огня.Harry.Potter.and.the.Goblet.of.Fire.(Майк.Ньюэлл).[2005.фэнтези.приключения.экранизация.BDRemux].[2160p.(4K.HDR)].[Dub]+2x[DVO]+[MVO]+[MVO.Ukr]+3[AVO]+[Eng]+[Ger]+[Sub.Rus.Ukr.Eng].torrent без регистрации
Золото ЗОЛОТАЯ РАЗДАЧА! СКАЧАННОЕ НЕ ЗАСЧИТЫВАЕТСЯ! Золото
Дата: Зарегистрирован   [ Тип: внешний ] Как тут cкачать?
MAGNET ссылка
MAGNET ссылка


Скачать .torrent

79 KB

Статус: проверено DHT
Скачан: торрент - 8 раз, раздача полностью - 0 раз
Размер: 62,09 GB
Оценка:  - (Голосов: 0)
Поблагодарили: 0
Поделиться ссылкой на эту раздачу с друзьями:
В контактеFacebookОдноклассникиTwitterLivejournalМой МирLiveinternet
 

 
Показать сообщения:    


Вы не можете начинать темы
Вы не можете отвечать на сообщения
Вы не можете редактировать свои сообщения
Вы не можете удалять свои сообщения
Вы не можете голосовать в опросах
Вы не можете прикреплять файлы к сообщениям
Вы можете скачивать файлы