Loading...
Error

Скачать Фарфоровая луна / China Moon (Джон Бэйли) [1991, триллер, мелодрама, криминал, детектив, BDRemux] [1080р] [DVO]+[AVO]+[VO]+[Оригинал Eng]+[Sub Rus, Eng]x2 торрент без регистрации

Статистика раздачи
Размер:  18,07 GB   |    Скачан:  12 раз
Сидов:  1  [  0 KB/s  ]  
 
 
 
Автор Сообщение

Marsianka

[] 

Информация о фильме
Название: Фарфоровая луна
Оригинальное название: China Moon
Год выхода: 1991
Жанр: триллер, мелодрама, криминал, детектив
Режиссер: Джон Бэйли
В ролях: Эд Харрис, Мэделин Стоу, Бенисио Дель Торо, Чарльз Дэнс, Патриция Хили, Тим Пауэлл, Прюитт Тэйлор Винс, Ларри Шулер, Роб Эдвард Моррис, Пол Дэрби, Тереза Бин, Аллен Принц, Сэм Майерс, Роб Кох

Описание: Полицейский влюбляется в замужнюю женщину, у которой очень плохие отношения с мужем. Муж изменял ей, оскорблял ее, бил, она дважды пыталась развестись с ним. Наконец-то решилась бесповоротно, и вместе с новым возлюбленным поехала домой за вещами. И тут неожиданно пришел благоверный. Между супругами вспыхнула ссора. Он швырнул ее об стену, она выхватила пистолет и выпустила в мужа две пули. Полицейский вынужден помочь ей избавиться от тела и улик и вскоре уже выступать следователем как бы своего собственного преступления.



Страна: США
Продолжительность: 01:39:56
Перевод 1: Профессиональный (двухголосый закадровый) НТВ+
Перевод 2: Авторский (одноголосый закадровый) С. Визгунов
Перевод 3: Любительский (одноголосый )М. Бирюков
Субтитры: русские (Gabem, Bandittious, KOS, WooD), английские
Оригинальная аудиодорожка: английский
Файл
Качество: BDRemux 1080р
Видео: AVC / 1920x1080 / 16:9 / 23.976 fps / 23564 kbps / High@L4.1
Аудио 1: Rus / AC3 / 48.0 KHz / 2.0 / 192 kbps / DVO / НТВ+
Аудио 2: Rus / AC3 / 48.0 KHz / 2.0 / 192 kbps / AVO / С. Визгунов
Аудио 3: Rus / AC3 / 48.0 KHz / 2.0 / 192 kbps / VO / М. Бирюков
Аудио 4: Eng / DTS-HD MA / 48.0 KHz / 2.0 / 1536 kbps / 16 bit (DTS Core 48.0 KHz / 2.0 / 1509 kbps / 16 bit)
Аудио 5: Eng / AC3 / 48.0 KHz / 2.0 / 192 kbps / Commentary by Director John Bailey and Co-Editor Carol Littleton
Общее
Уникальный идентификатор : 242616879723961356251668787220098314345 (0xB6864FB5C66A98382876944BFAD3F069)
Полное имя : China.Moon.1991.BDRemux.1080p.mkv
Формат : Matroska
Версия формата : Version 4 / Version 2
Размер файла : 18,1 Гбайт
Продолжительность : 1 ч. 39 м.
Режим общего битрейта : Переменный
Общий поток : 25,9 Мбит/сек
Название фильма : China.Moon.1991.BDRemux.1080p-porvaliparus
Дата кодирования : UTC 2018-01-08 00:51:15
Программа кодирования : mkvmerge v19.0.0 ('Brave Captain') 64-bit
Библиотека кодирования : libebml v1.3.5 + libmatroska v1.4.8

Видео
Идентификатор : 1
Формат : AVC
Формат/Информация : Advanced Video Codec
Профиль формата : High@L4.1
Настройки формата : CABAC / 3 Ref Frames
Параметр CABAC формата : Да
Параметр RefFrames формата : 3 кадра
Параметр GOP формата : M=3, N=12
Идентификатор кодека : V_MPEG4/ISO/AVC
Продолжительность : 1 ч. 39 м.
Вид битрейта : Переменный
Битрейт : 23,6 Мбит/сек
Максимальный битрейт : 32,3 Мбит/сек
Ширина : 1920 пикселей
Высота : 1080 пикселей
Соотношение сторон : 16:9
Режим частоты кадров : Постоянный
Частота кадров : 23,976 (24000/1001) кадра/сек
Стандарт вещания : NTSC
Цветовое пространство : YUV
Субдискретизация насыщенности : 4:2:0
Битовая глубина : 8 бит
Тип развёртки : Прогрессивная
Бит/(Пиксели*Кадры) : 0.474
Размер потока : 16,4 Гбайт (91%)
Заголовок : China.Moon.1991.BDRemux.1080p
Default : Да
Forced : Нет
Цветовой диапазон : Limited
Основные цвета : BT.709
Характеристики трансфера : BT.709
Коэффициенты матрицы : BT.709

Аудио #1
Идентификатор : 2
Формат : AC-3
Формат/Информация : Audio Coding 3
Идентификатор кодека : A_AC3
Продолжительность : 1 ч. 39 м.
Вид битрейта : Постоянный
Битрейт : 192 Кбит/сек
Каналы : 2 канала
Расположение каналов : Front: L R
Частота : 48,0 КГц
Частота кадров : 31,250 кадров/сек (1536 SPF)
Битовая глубина : 16 бит
Метод сжатия : С потерями
Размер потока : 137 Мбайт (1%)
Заголовок : DVO [НТВ+]
Язык : Russian
Default : Да
Forced : Нет

Аудио #2
Идентификатор : 3
Формат : AC-3
Формат/Информация : Audio Coding 3
Идентификатор кодека : A_AC3
Продолжительность : 1 ч. 39 м.
Вид битрейта : Постоянный
Битрейт : 192 Кбит/сек
Каналы : 2 канала
Расположение каналов : Front: L R
Частота : 48,0 КГц
Частота кадров : 31,250 кадров/сек (1536 SPF)
Битовая глубина : 16 бит
Метод сжатия : С потерями
Размер потока : 137 Мбайт (1%)
Заголовок : AVO [С. Визгунов]
Язык : Russian
Default : Нет
Forced : Нет

Аудио #3
Идентификатор : 4
Формат : AC-3
Формат/Информация : Audio Coding 3
Идентификатор кодека : A_AC3
Продолжительность : 1 ч. 39 м.
Вид битрейта : Постоянный
Битрейт : 192 Кбит/сек
Каналы : 2 канала
Расположение каналов : Front: L R
Частота : 48,0 КГц
Частота кадров : 31,250 кадров/сек (1536 SPF)
Битовая глубина : 16 бит
Метод сжатия : С потерями
Размер потока : 137 Мбайт (1%)
Заголовок : VO [М. Бирюков]
Язык : Russian
Default : Нет
Forced : Нет

Аудио #4
Идентификатор : 5
Формат : DTS
Формат/Информация : Digital Theater Systems
Профиль формата : MA / Core
Идентификатор кодека : A_DTS
Продолжительность : 1 ч. 39 м.
Вид битрейта : Переменный / Постоянный
Битрейт : 1536 Кбит/сек / 1509 Кбит/сек
Каналы : 2 канала
Расположение каналов : Front: L R
Частота : 48,0 КГц
Частота кадров : 93,750 кадра/сек (512 SPF)
Битовая глубина : 16 бит
Метод сжатия : Без потерь / Lossy
Размер потока : 1,09 Гбайт (6%)
Язык : English
Default : Нет
Forced : Нет

Аудио #5
Идентификатор : 6
Формат : AC-3
Формат/Информация : Audio Coding 3
Идентификатор кодека : A_AC3
Продолжительность : 1 ч. 39 м.
Вид битрейта : Постоянный
Битрейт : 192 Кбит/сек
Каналы : 2 канала
Расположение каналов : Front: L R
Частота : 48,0 КГц
Частота кадров : 31,250 кадров/сек (1536 SPF)
Битовая глубина : 16 бит
Метод сжатия : С потерями
Размер потока : 137 Мбайт (1%)
Заголовок : Commentary by Director John Bailey and Co-Editor Carol Littleton
Язык : English
Default : Нет
Forced : Нет

Текст #1
Идентификатор : 7
Формат : UTF-8
Идентификатор кодека : S_TEXT/UTF8
Идентификатор кодека/Информация : UTF-8 Plain Text
Продолжительность : 1 ч. 33 м.
Битрейт : 72 бит/сек
ElementCount : 915
Размер потока : 49,6 Кбайт (0%)
Заголовок : Gabem, Bandittious, KOS, WooD
Язык : Russian
Default : Нет
Forced : Нет

Текст #2
Идентификатор : 8
Формат : UTF-8
Идентификатор кодека : S_TEXT/UTF8
Идентификатор кодека/Информация : UTF-8 Plain Text
Продолжительность : 1 ч. 33 м.
Битрейт : 44 бит/сек
ElementCount : 1089
Размер потока : 30,4 Кбайт (0%)
Язык : English
Default : Нет
Forced : Нет

Меню
00:00:00.000 : en:Chapter 1
00:09:25.565 : en:Chapter 2
00:18:52.048 : en:Chapter 3
00:29:01.365 : en:Chapter 4
00:44:23.202 : en:Chapter 5
00:57:59.142 : en:Chapter 6
01:10:13.876 : en:Chapter 7
01:25:18.530 : en:Chapter 8



Скачать Фарфоровая.луна.China.Moon.(Джон.Бэйли).[1991.триллер.мелодрама.криминал.детектив.BDRemux].[1080р].[DVO]+[AVO]+[VO]+[Оригинал.Eng]+[Sub.Rus.Eng]x2.torrent без регистрации
Золото ЗОЛОТАЯ РАЗДАЧА! СКАЧАННОЕ НЕ ЗАСЧИТЫВАЕТСЯ! Золото
Дата: Зарегистрирован   [ Тип: внутренний ] Как тут cкачать?
MAGNET ссылка
MAGNET ссылка


Скачать .torrent

46 KB

Статус: проверено DHT
Скачан: торрент - 12 раз, раздача полностью - 6 раз
Размер: 18,07 GB
Оценка:  - (Голосов: 0)
Поблагодарили: 1
Поделиться ссылкой на эту раздачу с друзьями:
В контактеFacebookОдноклассникиTwitterLivejournalМой МирLiveinternet
 

 
Показать сообщения:    


Вы не можете начинать темы
Вы не можете отвечать на сообщения
Вы не можете редактировать свои сообщения
Вы не можете удалять свои сообщения
Вы не можете голосовать в опросах
Вы не можете прикреплять файлы к сообщениям
Вы можете скачивать файлы