Loading...
Error

Скачать Игры дьявола / Before the Devil Knows You're Dead (Сидни Люмет) [2007, триллер, драма, криминал, BDRip] [720p] [Dub]+[AVO]+[Eng] торрент без регистрации

Статистика раздачи
Размер:  5,75 GB   |    Скачан:  26 раз
Сидов:  6  [  0 KB/s  ]   Личеров:  1  [  0 KB/s  ]  
 
 
 
Автор Сообщение

Marsianka

[] 

Игры дьявола / Before the Devil Knows You're Dead

«Мы убиваем тех, кем дорожим...»

Русское название: Игры дьявола
Оригинальное название: Before the Devil Knows You're Dead
Год выпуска: 2007
Жанр: триллер, драма, криминал
Выпущено: США
Режиссер: Сидни Люмет
В ролях: Филип Сеймур Хоффман , Итан Хоук , Альберт Финни , Мариса Томей , Алекса Палладино , Майкл Шеннон , Эми Райан , Сара Ливингстон , Брайан Ф. О’Бирн , Розмари Харрис , Блейн Хортон , Ария Барейкис
Перевод: Дублированный, Авторский одноголосый


Сюжет фильма:
Два брата замыслили идеальное, как им кажется, преступление. В теории они должны получить огромную сумму денег, обойдясь при этом без оружия, жестокости и кровопролития. Более того, вероятность неудачи сведена к нулю. Однако хитроумный план идет прахом, когда соучастник героев самовольно меняет правила игры, и подвергает себя и подельников неоправданному риску. Преступники теряют контроль над ситуацией, а череда последующих событий, увы, никого не оставляет в безопасности...



Качество: BDRip 720p
Формат: AVC (библиотека кодирования x.264)
Контейнер (Расширение): MKV
Видео: 1280x694, 5330 Кбит/сек, 23,976 кадр/сек, 0,250 Бит/[Пиксели*Кадры]
Аудио №1: русский / AC3 / 5.1 / 48 kHz / 448 kbps / |Дублированный|
Аудио №2: русский / AC3 / 5.1 / 48 kHz / 640 kbps / |Авторский одноголосый, Ю. Сербин|
Аудио №3: английский / AC3 / 5.1 / 48 kHz / 640 kbps /
Навигация по главам(Чаптеры): есть
Продолжительность: 01:56:43

Автор рипа: Группа:

Format : Matroska
Format version : Version 2
File size : 5.75 GiB
Duration : 1 h 56 min
Overall bit rate : 7 057 kb/s
Movie name : Before.The.Devil.Knows.You're.Dead.(2007).BDRip.720p.[denis100]
Encoded date : UTC 2018-01-10 19:32:55
Writing application : mkvmerge v5.8.0 ('No Sleep / Pillow') built on Sep 2 2012 15:37:04
Writing library : libebml v1.2.3 + libmatroska v1.3.0

Video
ID : 1
Format : AVC
Format/Info : Advanced Video Codec
Format profile : High@L4.1
Format settings, CABAC : Yes
Format settings, ReFrames : 9 frames
Codec ID : V_MPEG4/ISO/AVC
Duration : 1 h 56 min
Bit rate : 5 330 kb/s
Width : 1 280 pixels
Height : 694 pixels
Display aspect ratio : 1.85:1
Frame rate mode : Constant
Frame rate : 23.976 (24000/1001) FPS
Color space : YUV
Chroma subsampling : 4:2:0
Bit depth : 8 bits
Scan type : Progressive
Bits/(Pixel*Frame) : 0.250
Stream size : 4.23 GiB (74%)
Title : Before.The.Devil.Knows.You're.Dead.(2007).BDRip.720p.[denis100]
Writing library : x264 core 152 r2851 ba24899
Encoding settings : cabac=1 / ref=9 / deblock=1:-3:-3 / analyse=0x3:0x113 / me=umh / subme=11 / psy=1 / psy_rd=1.00:0.10 / mixed_ref=1 / me_range=32 / chroma_me=1 / trellis=2 / 8x8dct=1 / cqm=0 / deadzone=21,11 / fast_pskip=0 / chroma_qp_offset=-3 / threads=6 / lookahead_threads=1 / sliced_threads=0 / nr=0 / decimate=1 / interlaced=0 / bluray_compat=0 / constrained_intra=0 / bframes=10 / b_pyramid=2 / b_adapt=2 / b_bias=0 / direct=3 / weightb=1 / open_gop=0 / weightp=2 / keyint=240 / keyint_min=23 / scenecut=40 / intra_refresh=0 / rc=2pass / mbtree=0 / bitrate=5330 / ratetol=1.0 / qcomp=0.60 / qpmin=0 / qpmax=69 / qpstep=4 / cplxblur=20.0 / qblur=0.5 / ip_ratio=1.40 / pb_ratio=1.30 / aq=1:0.75
Language : English
Default : Yes
Forced : No

Audio #1
ID : 2
Format : AC-3
Format/Info : Audio Coding 3
Mode extension : CM (complete main)
Format settings, Endianness : Big
Codec ID : A_AC3
Duration : 1 h 56 min
Bit rate mode : Constant
Bit rate : 448 kb/s
Channel(s) : 6 channels
Channel positions : Front: L C R, Side: L R, LFE
Sampling rate : 48.0 kHz
Frame rate : 31.250 FPS (1536 spf)
Compression mode : Lossy
Stream size : 374 MiB (6%)
Title : Дублированный
Language : Russian
Default : Yes
Forced : No

Audio #2
ID : 3
Format : AC-3
Format/Info : Audio Coding 3
Mode extension : CM (complete main)
Format settings, Endianness : Big
Codec ID : A_AC3
Duration : 1 h 56 min
Bit rate mode : Constant
Bit rate : 640 kb/s
Channel(s) : 6 channels
Channel positions : Front: L C R, Side: L R, LFE
Sampling rate : 48.0 kHz
Frame rate : 31.250 FPS (1536 spf)
Compression mode : Lossy
Stream size : 534 MiB (9%)
Title : AVO, Ю.Сербин
Language : Russian
Default : No
Forced : No

Audio #3
ID : 4
Format : AC-3
Format/Info : Audio Coding 3
Mode extension : CM (complete main)
Format settings, Endianness : Big
Codec ID : A_AC3
Duration : 1 h 56 min
Bit rate mode : Constant
Bit rate : 640 kb/s
Channel(s) : 6 channels
Channel positions : Front: L C R, Side: L R, LFE
Sampling rate : 48.0 kHz
Frame rate : 31.250 FPS (1536 spf)
Compression mode : Lossy
Stream size : 534 MiB (9%)
Language : English
Default : No
Forced : No

Menu
00:00:00.000 : en:00:00:00.000
00:04:00.865 : en:00:04:00.865
00:08:58.370 : en:00:08:58.370
00:13:26.053 : en:00:13:26.053
00:16:35.158 : en:00:16:35.158
00:21:27.286 : en:00:21:27.286
00:29:56.000 : en:00:29:56.000
00:37:50.893 : en:00:37:50.893
00:41:47.713 : en:00:41:47.713
00:47:55.289 : en:00:47:55.289
00:51:50.731 : en:00:51:50.731
00:59:29.565 : en:00:59:29.565
01:05:55.242 : en:01:05:55.242
01:13:11.386 : en:01:13:11.386
01:17:52.332 : en:01:17:52.332
01:23:12.904 : en:01:23:12.904
01:30:16.411 : en:01:30:16.411
01:34:20.529 : en:01:34:20.529
01:41:51.104 : en:01:41:51.104
01:46:45.814 : en:01:46:45.814
01:52:32.578 : en:01:52:32.578



Скачать Игры.дьявола.Before.the.Devil.Knows.You're.Dead.(Сидни.Люмет).[2007.триллер.драма.криминал.BDRip].[720p].[Dub]+[AVO]+[Eng].torrent без регистрации
Золото ЗОЛОТАЯ РАЗДАЧА! СКАЧАННОЕ НЕ ЗАСЧИТЫВАЕТСЯ! Золото
Дата: Зарегистрирован   [ Тип: внешний ] Как тут cкачать?
MAGNET ссылка
MAGNET ссылка


Скачать .torrent

30 KB

Статус: проверено DHT
Скачан: торрент - 26 раз, раздача полностью - 3 раз
Размер: 5,75 GB
Оценка:  - (Голосов: 0)
Поблагодарили: 0
Поделиться ссылкой на эту раздачу с друзьями:
В контактеFacebookОдноклассникиTwitterLivejournalМой МирLiveinternet
 

 
Показать сообщения:    


Вы не можете начинать темы
Вы не можете отвечать на сообщения
Вы не можете редактировать свои сообщения
Вы не можете удалять свои сообщения
Вы не можете голосовать в опросах
Вы не можете прикреплять файлы к сообщениям
Вы можете скачивать файлы