Loading...
Error

Скачать Заре навстречу (Татьяна Лукашевич) [1959, драма, история, VHSRip] торрент без регистрации

Статистика раздачи
Размер:  748 MB   |    Скачан:  13 раз
Сидов:  3  [  0 KB/s  ]  
 
 
 
Автор Сообщение

Marsianka

[] 

Страна: СССР
Производство: Мосфильм

Жанр: драма, история
Год выпуска: 1959
Продолжительность: 01:33:36

Перевод: Не требуется
Cубтитры: нет
Оригинальная аудиодорожка: русский

Режиссер: Татьяна Лукашевич

В ролях:
Владимир Мазаев, Юрий Яковлев, Татьяна Конюхова, Евгений Самойлов, Ирина Скобцева, Марина Штейнбрехт, Олег Жаков, Афанасий Кочетков, Станислав Чекан, Гарри Дунц, Георгий Черноволенко, Юлия Севела, Иван Кузнецов, Александр Лебедев (II), Пётр Савин, Борис Новиков, Алексей Жильцов, Андрей Тутышкин, Павел Шпрингфельд, Валериан Казанский, Юрий Леонидов, Георгий Георгиу...
Об актёрах подробней

Описание:
Историко-революционный фильм по одноименному роману В. М. Кожевникова.
Время и место действия - Сибирь, 1916-1917 гг. Большевик Пётр Сапожков (Юрий Яковлев) после окончания срока ссылки занимается в небольшом сибирском городке революционной пропагандой и агитацией. Ему помогает жена Варя (Татьяна Конюхова). После февральской революции партия большевиков по-прежнему вне закона, Пётр и Варя скрываются, им грозит арест. Охранке удается захватить их сына Тиму, мальчик попадает в сиротский приют. После Октябрьской революции Сапожков и Варя встречаются с сыном, чтобы больше не расставаться.

Исходник: VHS
Качество видео: VHSRip
Формат видео: AVI

Видео: 640x480 (4:3), 25 fps, XviD ~ 979 kbps avg, 0.128 bit/pixel
Аудио: 48 kHz, MP3 2.0, 128 kbps

Раздача от:

Общее
Полное имя : Zare.navstrecu.1959.VHSRip-745_[New-team]_by_AVP_Studio.avi
Формат : AVI
Формат/Информация : Audio Video Interleave
Размер файла : 748 Мбайт
Продолжительность : 1 ч. 33 м.
Общий поток : 1117 Кбит/сек
Программа кодирования : VirtualDubMod 1.5.10.3 | www.virtualdub-fr.org || (build 2550/release)
Библиотека кодирования : VirtualDubMod build 2550/release

Видео
Идентификатор : 0
Формат : MPEG-4 Visual
Профиль формата : Advanced Simple@L5
Настройки формата : BVOP1 / Custom Matrix
Параметр BVOP формата : 1
Параметр QPel формата : Нет
Параметр GMC формата : Без точки перехода
Параметр матрицы формата : Выборочная
Идентификатор кодека : XVID
Идентификатор кодека/Подсказка : XviD
Продолжительность : 1 ч. 33 м.
Битрейт : 979 Кбит/сек
Ширина : 640 пикселей
Высота : 480 пикселей
Соотношение сторон : 4:3
Частота кадров : 25,000 кадров/сек
Цветовое пространство : YUV
Субдискретизация насыщенности : 4:2:0
Битовая глубина : 8 бит
Тип развёртки : Прогрессивная
Метод сжатия : С потерями
Бит/(Пиксели*Кадры) : 0.128
Размер потока : 656 Мбайт (88%)
Библиотека кодирования : XviD 73

Аудио
Идентификатор : 1
Формат : MPEG Audio
Версия формата : Version 1
Профиль формата : Layer 3
Идентификатор кодека : 55
Идентификатор кодека/Подсказка : MP3
Продолжительность : 1 ч. 33 м.
Вид битрейта : Постоянный
Битрейт : 128 Кбит/сек
Каналы : 2 канала
Частота : 48,0 КГц
Частота кадров : 41,667 кадра/сек (1152 SPF)
Метод сжатия : С потерями
Размер потока : 85,7 Мбайт (11%)
Выравнивание : Соединение по промежуткам
Продолжительность промежутка : 40 мс. (1,00 видеокадр)
Время предзагрузки промежутка : 504 мс.
Библиотека кодирования : LAME3.99r
Настройки программы : -m s -V 4 -q 2 -lowpass 17 -b 128



Скачать Заре.навстречу.(Татьяна.Лукашевич).[1959.драма.история.VHSRip].torrent без регистрации
Золото ЗОЛОТАЯ РАЗДАЧА! СКАЧАННОЕ НЕ ЗАСЧИТЫВАЕТСЯ! Золото
Дата: Зарегистрирован   [ Тип: внешний ] Как тут cкачать?
MAGNET ссылка
MAGNET ссылка


Скачать .torrent

16 KB

Статус: проверено DHT
Скачан: торрент - 13 раз, раздача полностью - 1 раз
Размер: 748 MB
Оценка:  - (Голосов: 0)
Поблагодарили: 0
Поделиться ссылкой на эту раздачу с друзьями:
В контактеFacebookОдноклассникиTwitterLivejournalМой МирLiveinternet
 

 
Показать сообщения:    


Вы не можете начинать темы
Вы не можете отвечать на сообщения
Вы не можете редактировать свои сообщения
Вы не можете удалять свои сообщения
Вы не можете голосовать в опросах
Вы не можете прикреплять файлы к сообщениям
Вы можете скачивать файлы