Loading...
Error

Скачать Даже не думай (Руслан Бальтцер) [2003, комедия, криминал, DVDRip-AVC] [Оригинал Rus] торрент без регистрации

Статистика раздачи
Размер:  1,93 GB   |    Скачан:  11 раз
Сидов:  6  [  0 KB/s  ]  
 
 
 
Автор Сообщение

Marsianka

[] 

Даже не думай


Год выпуска: 2003
Страна: Россия
Жанр: комедия, криминал
Перевод: Оригинал
Продолжительность: 01:21:30
Русские субтитры: нет

Режиссер: Руслан Бальтцер
В ролях: Алексей Панин, Алексей Алексеев, Сергей Мухин, Дельфин, Игорь Ясулович, Андрей Панин, Валерий Николаев

Описание: «Даже не думай!» — это крылатая фраза, которую произносит любой уважающий себя супергерой боевика. Главные герои — безработный актер, спортсмен и работник видеопроката — молодые, сильные духом и веселые ребята. В криминальном мире свои законы, но новичкам всегда везет.
Бросив вызов миру, ребята действуют на свой страх и риск, не думая о последствиях. Обычные парни с юношеским задором и чувством юмора, не супермены, но авантюристы, они строят свою жизнь спонтанно, как получится. Насмотревшись фильмов, и подражая героям боевиков, ребята решаются «пойти на дело»…



Кодек: х264
Качество: DVDRip-AVC
Видео: MPEG-4 AVC, 716x572@1018x572, 25 fps, 2881 Кбит/с
Звук: AC3, 6 ch, 448 Кбит/с

x264 [info]: frame I:925 Avg QP:17.45 size: 81851
x264 [info]: frame P:27346 Avg QP:18.98 size: 33328
x264 [info]: frame B:94000 Avg QP:21.59 size: 8662

Общее
Уникальный идентификатор : 221642530542372220584277916247673408420 (0xA6BECC7477529942A501F459A5820BA4)
Полное имя : D:Даже не думай_2003-DVDRip-AVC_KORSAR.mkv
Формат : Matroska
Версия формата : Version 2
Размер файла : 1,93 Гбайт
Продолжительность : 1 ч. 21 м.
Общий поток : 3396 Кбит/сек
Дата кодирования : UTC 2017-08-12 02:06:54
Программа кодирования : mkvmerge v5.8.0 ('No Sleep / Pillow') built on Sep 2 2012 15:37:04
Библиотека кодирования : libebml v1.2.3 + libmatroska v1.3.0

Видео
Идентификатор : 1
Формат : AVC
Формат/Информация : Advanced Video Codec
Профиль формата : High@L4.1
Параметр CABAC формата : Да
Параметр RefFrames формата : 13 кадров
Идентификатор кодека : V_MPEG4/ISO/AVC
Продолжительность : 1 ч. 21 м.
Битрейт : 2881 Кбит/сек
Ширина : 716 пикселей
Высота : 572 пикселя
Соотношение сторон : 16:9
Режим частоты кадров : Постоянный
Частота кадров : 25,000 кадров/сек
Цветовое пространство : YUV
Субдискретизация насыщенности : 4:2:0
Битовая глубина : 8 бит
Тип развёртки : Прогрессивная
Бит/(Пиксели*Кадры) : 0.281
Размер потока : 1,64 Гбайт (85%)
Заголовок : korsar.tv
Библиотека кодирования : x264 core 148 r2744kMod b97ae06
Настройки программы : cabac=1 / ref=13 / deblock=1:-2:-2 / analyse=0x3:0x133 / me=umh / subme=10 / psy=1 / fade_compensate=0.00 / psy_rd=1.05:0.10 / mixed_ref=1 / me_range=32 / chroma_me=1 / trellis=2 / 8x8dct=1 / cqm=0 / deadzone=21,11 / fast_pskip=1 / chroma_qp_offset=-3 / threads=12 / lookahead_threads=2 / sliced_threads=0 / nr=0 / decimate=1 / interlaced=0 / bluray_compat=0 / constrained_intra=0 / bframes=9 / b_pyramid=2 / b_adapt=2 / b_bias=0 / direct=1 / weightb=1 / open_gop=0 / weightp=2 / keyint=250 / keyint_min=25 / scenecut=40 / intra_refresh=0 / rc=crf / mbtree=0 / crf=17.5000 / qcomp=0.63 / qpmin=0 / qpmax=39 / qpstep=4 / ip_ratio=1.40 / pb_ratio=1.30 / aq=2:1.00
Язык : English
Default : Да
Forced : Нет
Цветовой диапазон : Limited
Основные цвета : BT.601 PAL
Характеристики трансфера : BT.470 System B, BT.470 System G
Коэффициенты матрицы : BT.601

Аудио
Идентификатор : 2
Формат : AC-3
Формат/Информация : Audio Coding 3
Параметр Endianness формата : Big
Идентификатор кодека : A_AC3
Продолжительность : 1 ч. 21 м.
Вид битрейта : Постоянный
Битрейт : 448 Кбит/сек
Каналы : 6 каналов
Расположение каналов : Front: L C R, Side: L R, LFE
Частота : 48,0 КГц
Частота кадров : 31,250 кадров/сек (1536 SPF)
Битовая глубина : 16 бит
Метод сжатия : С потерями
Размер потока : 261 Мбайт (13%)
Язык : Russian
Default : Да
Forced : Нет



Скачать Даже.не.думай.(Руслан.Бальтцер).[2003.комедия.криминал.DVDRip-AVC].[Оригинал.Rus].torrent без регистрации
Золото ЗОЛОТАЯ РАЗДАЧА! СКАЧАННОЕ НЕ ЗАСЧИТЫВАЕТСЯ! Золото
Дата: Зарегистрирован   [ Тип: внешний ] Как тут cкачать?
MAGNET ссылка
MAGNET ссылка


Скачать .torrent

20 KB

Статус: проверено DHT
Скачан: торрент - 11 раз, раздача полностью - 7 раз
Размер: 1,93 GB
Оценка:  - (Голосов: 0)
Поблагодарили: 0
Поделиться ссылкой на эту раздачу с друзьями:
В контактеFacebookОдноклассникиTwitterLivejournalМой МирLiveinternet
 

 
Показать сообщения:    


Вы не можете начинать темы
Вы не можете отвечать на сообщения
Вы не можете редактировать свои сообщения
Вы не можете удалять свои сообщения
Вы не можете голосовать в опросах
Вы не можете прикреплять файлы к сообщениям
Вы можете скачивать файлы