Loading...
Error

Скачать National Geographic: Империя гризли / Grizzly Еmpire (]Джаред Липуорф) [2015, документальный, фауна, HDTVRip] [720p] [Dub]+[Eng] торрент без регистрации

Статистика раздачи
Размер:  1,58 GB   |    Скачан:  17 раз
Сидов:  1  [  0 KB/s  ]  
 
 
 
Автор Сообщение

Marsianka

[] 



Информация о фильме
Название: Империя гризли
Оригинальное: Grizzly Еmpire
Год выхода: 2015
Жанр: документальный, фауна
Режиссер: Джаред Липуорф

О фильме:
Здесь обитают самые большие медведи в мире. Императоры, императрицы и медвежонок по имени Тор. Столь необычную сцену убийства вряд ли раньше показывали по телевидению. Тор вовлечён в эту кровавую бойню. Она определит его судьбу и его шансы на выживание в империи гризли.

Выпущено: США, National Geographic Studios
Продолжительность: 00:43:43
Перевод: Дублированный

Файл
Кодек: MPEG-4 AVC
Качество: HDTVRip 720p
Видео: 1280х720, 4800 Кбит/с, 25 кадр/с
Аудио 1: Русский, MP2, 2 канала, 192 Кбит/с
Аудио 2: Английский, MP2, 2 канала, 192 Кбит/с
General
Unique ID : 249968529664088711157994605744059788962 (0xBC0E300966B891BB9EEFDE79E0F32EA2)
Complete name : D:ВидеоФлора и фаунаGrizzli Empire HDTVRip-720p.2015.mkv
Format : Matroska
Format version : Version 4 / Version 2
File size : 1.58 GiB
Duration : 43mn 43s
Overall bit rate : 5 186 Kbps
Encoded date : UTC 2016-03-14 10:23:24
Writing application : mkvmerge v8.3.0 ('Over the Horizon') 64bit
Writing library : libebml v1.3.1 + libmatroska v1.4.2

Video
ID : 1
Format : AVC
Format/Info : Advanced Video Codec
Format profile : High@L4.1
Format settings, CABAC : Yes
Format settings, ReFrames : 7 frames
Codec ID : V_MPEG4/ISO/AVC
Duration : 43mn 43s
Bit rate : 4 800 Kbps
Width : 1 280 pixels
Height : 720 pixels
Display aspect ratio : 16:9
Frame rate mode : Constant
Frame rate : 25.000 fps
Color space : YUV
Chroma subsampling : 4:2:0
Bit depth : 8 bits
Scan type : Progressive
Bits/(Pixel*Frame) : 0.208
Stream size : 1.47 GiB (93%)
Writing library : x264 core 148 r2638 7599210
Encoding settings : cabac=1 / ref=7 / deblock=1:-1:-1 / analyse=0x3:0x113 / me=umh / subme=9 / psy=1 / psy_rd=1.05:0.15 / mixed_ref=1 / me_range=32 / chroma_me=1 / trellis=2 / 8x8dct=1 / cqm=0 / deadzone=21,11 / fast_pskip=1 / chroma_qp_offset=-3 / threads=6 / lookahead_threads=1 / sliced_threads=0 / nr=0 / decimate=1 / interlaced=0 / bluray_compat=0 / constrained_intra=0 / bframes=8 / b_pyramid=2 / b_adapt=2 / b_bias=0 / direct=3 / weightb=1 / open_gop=0 / weightp=2 / keyint=250 / keyint_min=25 / scenecut=40 / intra_refresh=0 / rc_lookahead=60 / rc=2pass / mbtree=1 / bitrate=4800 / ratetol=1.0 / qcomp=0.60 / qpmin=0 / qpmax=69 / qpstep=4 / cplxblur=20.0 / qblur=0.5 / ip_ratio=1.40 / aq=1:1.00
Default : Yes
Forced : No

Audio #1
ID : 2
Format : MPEG Audio
Format version : Version 1
Format profile : Layer 2
Codec ID : A_MPEG/L2
Codec ID/Hint : MP2
Duration : 43mn 43s
Bit rate mode : Constant
Bit rate : 192 Kbps
Channel(s) : 2 channels
Sampling rate : 48.0 KHz
Frame rate : 41.667 fps (1152 spf)
Compression mode : Lossy
Stream size : 60.0 MiB (4%)
Title : Студия "Велес"
Language : Russian
Default : Yes
Forced : No

Audio #2
ID : 3
Format : MPEG Audio
Format version : Version 1
Format profile : Layer 2
Codec ID : A_MPEG/L2
Codec ID/Hint : MP2
Duration : 43mn 42s
Bit rate mode : Constant
Bit rate : 192 Kbps
Channel(s) : 2 channels
Sampling rate : 48.0 KHz
Frame rate : 41.667 fps (1152 spf)
Compression mode : Lossy
Stream size : 60.0 MiB (4%)
Title : Original
Language : English
Default : No
Forced : No



Скачать National.Geographic.Империя.гризли.Grizzly.Еmpire.(]Джаред.Липуорф).[2015.документальный.фауна.HDTVRip].[720p].[Dub]+[Eng].torrent без регистрации
Золото ЗОЛОТАЯ РАЗДАЧА! СКАЧАННОЕ НЕ ЗАСЧИТЫВАЕТСЯ! Золото
Дата: Зарегистрирован   [ Тип: внутренний ] Как тут cкачать?
MAGNET ссылка
MAGNET ссылка


Скачать .torrent

17 KB

Статус: проверено DHT
Скачан: торрент - 17 раз, раздача полностью - 2 раз
Размер: 1,58 GB
Оценка:  5 (Голосов: 1)
Поблагодарили: 1
Поделиться ссылкой на эту раздачу с друзьями:
В контактеFacebookОдноклассникиTwitterLivejournalМой МирLiveinternet
 

 
Показать сообщения:    


Вы не можете начинать темы
Вы не можете отвечать на сообщения
Вы не можете редактировать свои сообщения
Вы не можете удалять свои сообщения
Вы не можете голосовать в опросах
Вы не можете прикреплять файлы к сообщениям
Вы можете скачивать файлы