Loading...
Error

Скачать National Geographic: Битва болотных драконов / Battle of the Swamp Dragons (Касей Эдлунд) [2017, документальный, природа, флора, фауна, HDTVRip] [720p] [Dub] торрент без регистрации

Статистика раздачи
Размер:  1,6 GB   |    Скачан:  14 раз
Сидов:  1  [  0 KB/s  ]  
 
 
 
Автор Сообщение

Marsianka

[] 

Информация о фильме
Название: Битва болотных драконов
Оригинальное: Battle of the Swamp Dragons
Год выхода: 2017
Жанр: документальный, природа, флора, фауна
Режиссер: Касей Эдлунд

Описание:
В болотах Флориды правят современные чудовища. Огромные аллигаторы и крокодилы охотятся бок о бок и убивают одним укусом. Но в болоте может править только один король. Что будет, когда эти два титана столкнутся? Кто из них более свирепый хищник и кто победит?

Выпущено: США, Великобритания / National Geographic
Продолжительность: 00:44:00
Перевод: Дублированный

Файл
Кодек: MPEG-4 AVC
Качество: HDTVRip 720p
Видео: 1280х720, 5000 Кбит/с, 25 кадр/с
Звук: AC3, 2 канала, 192 Кбит/с
Общее
Уникальный идентификатор : 196803279868720943578279813132441284628 (0x940EEED81F8D87B0A58E83CFE9CEF014)
Полное имя : C:UsersDDesktopNGW_Battle of the Swamp Dragons_720p.mkv
Формат : Matroska
Версия формата : Version 4 / Version 2
Размер файла : 1,60 Гбайт
Продолжительность : 43 м. 59 с.
Режим общего битрейта : Переменный
Общий поток : 5191 Кбит/сек
Дата кодирования : UTC 2017-01-21 21:02:06
Программа кодирования : mkvmerge v7.3.0 ('Nouages') 64bit built on Oct 22 2014 18:53:34
Библиотека кодирования : libebml v1.3.0 + libmatroska v1.4.1

Видео
Идентификатор : 1
Формат : AVC
Формат/Информация : Advanced Video Codec
Профиль формата : High@L4.1
Настройки формата : CABAC / 3 Ref Frames
Параметр CABAC формата : Да
Параметр RefFrames формата : 3 кадра
Режим смешивания : zlib
Идентификатор кодека : V_MPEG4/ISO/AVC
Продолжительность : 43 м. 59 с.
Вид битрейта : Переменный
Битрейт : 4998 Кбит/сек
Максимальный битрейт : 8000 Кбит/сек
Ширина : 1280 пикселей
Высота : 720 пикселей
Соотношение сторон : 16:9
Режим частоты кадров : Постоянный
Частота кадров : 25,000 кадров/сек
Стандарт вещания : NTSC
Цветовое пространство : YUV
Субдискретизация насыщенности : 4:2:0
Битовая глубина : 8 бит
Тип развёртки : Прогрессивная
Бит/(Пиксели*Кадры) : 0.217
Размер потока : 1,54 Гбайт (96%)
Default : Да
Forced : Нет
Цветовой диапазон : Limited
Основные цвета : BT.709
Характеристики трансфера : BT.709
Коэффициенты матрицы : BT.709

Аудио
Идентификатор : 2
Формат : AC-3
Формат/Информация : Audio Coding 3
Идентификатор кодека : A_AC3
Продолжительность : 43 м. 59 с.
Вид битрейта : Постоянный
Битрейт : 192 Кбит/сек
Каналы : 2 канала
Расположение каналов : Front: L R
Частота : 48,0 КГц
Частота кадров : 31,250 кадров/сек (1536 SPF)
Битовая глубина : 16 бит
Метод сжатия : С потерями
Размер потока : 60,4 Мбайт (4%)
Default : Да
Forced : Нет



Скачать National.Geographic.Битва.болотных.драконов.Battle.of.the.Swamp.Dragons.(Касей.Эдлунд).[2017.документальный.природа.флора.фауна.HDTVRip].[720p].[Dub].torrent без регистрации
Золото ЗОЛОТАЯ РАЗДАЧА! СКАЧАННОЕ НЕ ЗАСЧИТЫВАЕТСЯ! Золото
Дата: Зарегистрирован   [ Тип: внутренний ] Как тут cкачать?
MAGNET ссылка
MAGNET ссылка


Скачать .torrent

17 KB

Статус: проверено DHT
Скачан: торрент - 14 раз, раздача полностью - 3 раз
Размер: 1,6 GB
Оценка:  5 (Голосов: 1)
Поблагодарили: 2
Поделиться ссылкой на эту раздачу с друзьями:
В контактеFacebookОдноклассникиTwitterLivejournalМой МирLiveinternet
 

 
Показать сообщения:    


Вы не можете начинать темы
Вы не можете отвечать на сообщения
Вы не можете редактировать свои сообщения
Вы не можете удалять свои сообщения
Вы не можете голосовать в опросах
Вы не можете прикреплять файлы к сообщениям
Вы можете скачивать файлы