Loading...
Error

Скачать Лунный камень / The Moonstone (01-05 из 05) (Лиза Мулкахи) [2016, детектив, криминал, WEBRip] [720р] [DVO (Project_Web_Mania)]+[Eng]+[Sub Rus, Eng] торрент без регистрации

Статистика раздачи
Размер:  4,12 GB   |    Скачан:  14 раз
Сидов:  1  [  0 KB/s  ]  
 
 
 
Автор Сообщение

МихаНЕзатор

[] 

Лунный камень / The Moonstone


Страна: Великобритания
Производство: King Bert Productions
Год выпуска: 2016
Сезон: 1
Жанр: детектив, криминал
Режиссер: Лиза Мулкахи
Авторы сценария: Уилки Коллинз, Рэйчел Флауердэй, Саша Эл

В ролях: Джошуа Сильвер, Лео Рингер, Терения Эдвардс, Низа Коул, Стюарт Кларк, Мадхав Шарма, Дэвид Колдер, Джон Томсон, Джереми Свифт

Описание: В последний год восемнадцатого столетия полковник Джон Хернкасл похитил в Индии священный жёлтый бриллиант исключительной ценности, украшавший чело бога Луны в одном из индийских храмов. Великий бог-хранитель Вишну проклял вора, повелев трём жрецам искать Лунный камень до скончания веков. Но коварный полковник сумел тайком увезти камень в Англию. Он завещал бриллиант своей племяннице, юной красавице мисс Рэйчел Вериндер. А мистеру Франклину Блейку, как галантному кавалеру было поручено доставить его своей кузине. Рэйчел была очарована своим бриллиантом. Она пожелала оставить его на ночь в своём секретере, однако ночью камень исчез...

Дата премьеры (мир): 31 октября 2016



Продолжительность: 5х ~00:44:00
Перевод: Любительский (двухголосый, закадровый) | Project_Web_Mania
Субтитры: русские, английские

Качество: WEBRip 720р
Формат: МКV
Видео кодек: AVC
Аудио кодек: АС3
Видео: 1280x720 (16:9), 25.000 fps, MPEG-4 AVC ~2 250 kbps avg
Аудио №1: 48.0 kHz, AC3 Dolby Digital, 2/0 (L,R) ch, ~192 kbps | RUS
Аудио №2: 48.0 kHz, AC3 Dolby Digital, 2/0 (L,R) ch, ~192 kbps | ENG
Формат субтитров: UTF-8 Plain Text

АНОНСЫ ПОПУЛЯРНЫХ РАЗДАЧ
General
Unique ID : 184365940782411943609653454549179600671 (0x8AB396AF0026BCE781D8BB26B7FA8F1F)
Format : Matroska
Format version : Version 4 / Version 2
File size : 844 MiB
Duration : 43 min 50 s
Overall bit rate mode : Variable
Overall bit rate : 2 691 kb/s
Encoded date : UTC 2018-01-05 06:27:19
Writing application : mkvmerge v6.9.1 ('Blue Panther') 32bit built on Apr 18 2014 18:15:44
Writing library : libebml v1.3.0 + libmatroska v1.4.1

Video
ID : 1
Format : AVC
Format/Info : Advanced Video Codec
Format profile : High@L4.1
Format settings : CABAC / 2 Ref Frames
Format settings, CABAC : Yes
Format settings, RefFrames : 2 frames
Codec ID : V_MPEG4/ISO/AVC
Duration : 43 min 50 s
Bit rate mode : Variable
Bit rate : 2 254 kb/s
Maximum bit rate : 3 500 kb/s
Width : 1 280 pixels
Height : 720 pixels
Display aspect ratio : 16:9
Frame rate mode : Constant
Frame rate : 25.000 FPS
Color space : YUV
Chroma subsampling : 4:2:0
Bit depth : 8 bits
Scan type : Progressive
Bits/(Pixel*Frame) : 0.098
Stream size : 707 MiB (84%)
Default : Yes
Forced : No

Audio #1
ID : 2
Format : AC-3
Format/Info : Audio Coding 3
Codec ID : A_AC3
Duration : 43 min 50 s
Bit rate mode : Constant
Bit rate : 192 kb/s
Channel(s) : 2 channels
Channel positions : Front: L R
Sampling rate : 48.0 kHz
Frame rate : 31.250 FPS (1536 SPF)
Bit depth : 16 bits
Compression mode : Lossy
Delay relative to video : -40 ms
Stream size : 60.2 MiB (7%)
Title : DVO Project_Web_Mania
Language : Russian
Service kind : Complete Main
Default : Yes
Forced : No

Audio #2
ID : 3
Format : AC-3
Format/Info : Audio Coding 3
Codec ID : A_AC3
Duration : 43 min 50 s
Bit rate mode : Constant
Bit rate : 192 kb/s
Channel(s) : 2 channels
Channel positions : Front: L R
Sampling rate : 48.0 kHz
Frame rate : 31.250 FPS (1536 SPF)
Bit depth : 16 bits
Compression mode : Lossy
Delay relative to video : -40 ms
Stream size : 60.2 MiB (7%)
Language : English
Service kind : Complete Main
Default : No
Forced : No

Text #1
ID : 4
Format : UTF-8
Codec ID : S_TEXT/UTF8
Codec ID/Info : UTF-8 Plain Text
Language : Russian
Default : No
Forced : No

Text #2
ID : 5
Format : UTF-8
Codec ID : S_TEXT/UTF8
Codec ID/Info : UTF-8 Plain Text
Language : English
Default : No
Forced : No



Скачать Лунный.камень.The.Moonstone.(01-05.из.05).(Лиза.Мулкахи).[2016.детектив.криминал.WEBRip].[720р].[DVO.(Project_Web_Mania)]+[Eng]+[Sub.Rus.Eng].torrent без регистрации
Золото ЗОЛОТАЯ РАЗДАЧА! СКАЧАННОЕ НЕ ЗАСЧИТЫВАЕТСЯ! Золото
Дата: Зарегистрирован   [ Тип: внутренний ] Как тут cкачать?
MAGNET ссылка
MAGNET ссылка


Скачать .torrent

22 KB

Статус: проверено DHT
Скачан: торрент - 14 раз, раздача полностью - 3 раз
Размер: 4,12 GB
Оценка:  - (Голосов: 0)
Поблагодарили: 1
Поделиться ссылкой на эту раздачу с друзьями:
В контактеFacebookОдноклассникиTwitterLivejournalМой МирLiveinternet
 

 
Показать сообщения:    


Вы не можете начинать темы
Вы не можете отвечать на сообщения
Вы не можете редактировать свои сообщения
Вы не можете удалять свои сообщения
Вы не можете голосовать в опросах
Вы не можете прикреплять файлы к сообщениям
Вы можете скачивать файлы