Loading...
Error

Скачать Времена года / Les Saisons (Жак Перрен, Жак Клюзо) [2015, документальный, природа, животные, флора, фауна, видовой, BDRemux] [1080p] [AVO (Юрий Сербин)] торрент без регистрации

Статистика раздачи
Размер:  24,67 GB   |    Скачан:  15 раз

Полного источника не было: 23 минуты

 
 
 
Автор Сообщение

Marsianka

[] 

Информация о фильме
Название: Времена года
Оригинальное: Les Saisons
Год выхода: 2015
Жанр: документальный, природа, животные, флора, фауна, видовой
Режиссёры: Жак Перрен, Жак Клюзо

О фильме:
Тысячу лет назад Европа была покрыта бесконечными лесами, где безраздельно правили зубры, лисы, волки, лоси и олени. Их королевством была первобытная непролазная чаща, которая простиралась через весь континент. Сердце её находилось в Беловежской пуще — теперь, пожалуй, единственном сохранившемся её фрагменте. В этом таинственном лесу разворачивается невероятная история самой дикой и ещё нетронутой рукой человека природы. Фильм «Времена года» продолжает популярный природоведческий цикл режиссёров Жака Перрена и Жака Клюзо, начатый документальными блокбастерами «Птицы» и «Океаны». На этот раз авторы приглашают в необычный мир реликтовой пущи, чтобы глазами её обитателей показать нам историю природы, нашего континента и человека от ледникового периода до настоящего времени.



Страна: Франция, Германия
Студия: France 2 Cineeema, Galatee Films, Pandora Filmproduktion GmbH, Pathe
Продолжительность: 01:36:02
Перевод: Авторский (Юрий Сербин)

Файл
Кодек: MPEG-4 AVC
Качество: BDRemux 1080p | A
Видео: 1920х1080, 32,0 Мбит/с, 24 кадр/с
Звук: DTS-HD MA, 8 каналов, 4904 Кбит/с
Общее
Уникальный идентификатор : 204317396995492423315112321580419884674 (0x99B6196BF0B38F17B2B2C4CBD3F5A682)
Полное имя : C:ВРЕМЕНА ГОДА.mkv
Формат : Matroska
Версия формата : Version 4 / Version 2
Размер файла : 24,7 Гбайт
Продолжительность : 1 ч. 36 м.
Режим общего битрейта : Переменный
Общий поток : 36,8 Мбит/сек
Дата кодирования : UTC 2018-01-14 12:00:26
Программа кодирования : mkvmerge v18.0.0 ('Apricity') 64-bit
Библиотека кодирования : libebml v1.3.5 + libmatroska v1.4.8

Видео
Идентификатор : 1
Формат : AVC
Формат/Информация : Advanced Video Codec
Профиль формата : High@L4.1
Настройки формата : CABAC / 3 Ref Frames
Параметр CABAC формата : Да
Параметр RefFrames формата : 3 кадра
Идентификатор кодека : V_MPEG4/ISO/AVC
Продолжительность : 1 ч. 36 м.
Вид битрейта : Переменный
Битрейт : 32,0 Мбит/сек
Максимальный битрейт : 35,0 Мбит/сек
Ширина : 1920 пикселей
Высота : 1080 пикселей
Соотношение сторон : 16:9
Режим частоты кадров : Постоянный
Частота кадров : 24,000 кадра/сек
Цветовое пространство : YUV
Субдискретизация насыщенности : 4:2:0
Битовая глубина : 8 бит
Тип развёртки : Прогрессивная
Бит/(Пиксели*Кадры) : 0.643
Размер потока : 21,4 Гбайт (87%)
Язык : French
Default : Да
Forced : Нет
Цветовой диапазон : Limited
Основные цвета : BT.709
Характеристики трансфера : BT.709
Коэффициенты матрицы : BT.709

Аудио
Идентификатор : 2
Формат : DTS
Формат/Информация : Digital Theater Systems
Профиль формата : MA / Core
Идентификатор кодека : A_DTS
Продолжительность : 1 ч. 36 м.
Вид битрейта : Переменный / Постоянный
Битрейт : 4904 Кбит/сек / 1509 Кбит/сек
Каналы : 8 каналов / 6 каналов
Расположение каналов : Front: L C R, Side: L R, Back: L R, LFE / Front: L C R, Side: L R, LFE
Частота : 48,0 КГц
Частота кадров : 93,750 кадра/сек (512 SPF)
Битовая глубина : 24 бит
Метод сжатия : Без потерь / Lossy
Размер потока : 3,29 Гбайт (13%)
Заголовок : Юрий Сербин
Язык : Russian
Default : Да
Forced : Нет



Скачать Времена.года.Les.Saisons.(Жак.Перрен.Жак.Клюзо).[2015.документальный.природа.животные.флора.фауна.видовой.BDRemux].[1080p].[AVO.(Юрий.Сербин)].torrent без регистрации
Золото ЗОЛОТАЯ РАЗДАЧА! СКАЧАННОЕ НЕ ЗАСЧИТЫВАЕТСЯ! Золото
Дата: Зарегистрирован   [ Тип: внутренний ] Как тут cкачать?
MAGNET ссылка
MAGNET ссылка


Скачать .torrent

63 KB

Статус: проверено DHT
Скачан: торрент - 15 раз, раздача полностью - 0 раз
Размер: 24,67 GB
Оценка:  - (Голосов: 0)
Поблагодарили: 0
Поделиться ссылкой на эту раздачу с друзьями:
В контактеFacebookОдноклассникиTwitterLivejournalМой МирLiveinternet
 

 
Показать сообщения:    


Вы не можете начинать темы
Вы не можете отвечать на сообщения
Вы не можете редактировать свои сообщения
Вы не можете удалять свои сообщения
Вы не можете голосовать в опросах
Вы не можете прикреплять файлы к сообщениям
Вы можете скачивать файлы