Loading...
Error

Скачать В самое пекло / Into the Inferno (Вернер Херцог) [2016, документальный, WEBRip] [720p] [MVO (Синема УС)] торрент без регистрации

Статистика раздачи
Размер:  3,19 GB   |    Скачан:  23 раза

Полного источника не было: 25 минут

 
 
 
Автор Сообщение

Marsianka

[] 

Информация о фильме
Название: В самое пекло
Оригинальное: Into the Inferno
Год выхода: 2016
Жанр: документальный
Режиссер: Вернер Херцог

О фильме:
В фильме много кадров с вулканами, извержениями, магмой, лавой, и это очень завораживающее зрелище. И эти кадры лишь дополнение к рассказу о людях, которые живут рядом с вулканами, и о культах которые они порождают. Тут вам жители Океании, приносящие жертвы чудищу в вулкане, порождённому соитию океана и местного царя, эфиопы, ищущие останки древних человекоподобных в тысячелетнем пепле, северные корейцы, верящие, что они все вышли из вулкана, исландцы, для которых извержения уже давно стали нормой жизни. И в итоге получается, что люди, живущие рядом с вулканом, заложники Инферно, они прям в самом пекле, которое в любой момент может поглотить их, и не раз это проделывало, даёт им ещё время пожить, наверно, поэтому в кадре много счастливых лиц. Казалось бы, что это локальное явление, и что нам парится жителям равнин не о чем, но фильм показывает, что извержение одного мощного вулкана очень может затронуть всю планету. А если сразу их рванет несколько…



Страна: Великобритания, Германия, Канада
Студия: Matter of Fact Media, Spring Films, Werner Herzog Filmproduktion
Продолжительность: 01:48:00
Перевод: Любительский (многоголосый, закадровый) [Синема УС]

Файл
Кодек: MPEG-4 AVC
Качество: WEBRip 720p
Видео: 1280х674, 4029 Кбит/с, 25 кадр/с
Звук: AC3, 2 канала, 192 Кбит/с
Уникальный идентификатор : 252250321212746726008273283642780846215 (0xBDC5A50BBF31D3E0A1F097EE91C08887)
Полное имя : C:UsersDDesktopInto.the.Inferno.2016.P.WEB-DL.72Op_KOSHARA.mkv
Формат : Matroska
Версия формата : Version 2
Размер файла : 3,19 Гбайт
Продолжительность : 1 ч. 47 м.
Режим общего битрейта : Переменный
Общий поток : 4223 Кбит/сек
Дата кодирования : UTC 2017-04-28 12:43:26
Программа кодирования : mkvmerge v8.3.0 ('Over the Horizon') 64bit
Библиотека кодирования : libebml v1.3.1 + libmatroska v1.4.2

Видео
Идентификатор : 1
Формат : AVC
Формат/Информация : Advanced Video Codec
Профиль формата : High@L4.1
Настройки формата : CABAC / 9 Ref Frames
Параметр CABAC формата : Да
Параметр RefFrames формата : 9 кадров
Идентификатор кодека : V_MPEG4/ISO/AVC
Продолжительность : 1 ч. 47 м.
Вид битрейта : Переменный
Битрейт : 4029 Кбит/сек
Максимальный битрейт : 4500 Кбит/сек
Ширина : 1280 пикселей
Высота : 674 пикселя
Соотношение сторон : 1,899
Режим частоты кадров : Постоянный
Частота кадров : 23,976 (24000/1001) кадра/сек
Стандарт вещания : Component
Цветовое пространство : YUV
Субдискретизация насыщенности : 4:2:0
Битовая глубина : 8 бит
Тип развёртки : Прогрессивная
Бит/(Пиксели*Кадры) : 0.195
Размер потока : 3,04 Гбайт (95%)
Default : Да
Forced : Нет
Цветовой диапазон : Limited
Основные цвета : BT.709
Характеристики трансфера : BT.709
Коэффициенты матрицы : BT.709

Аудио
Идентификатор : 2
Формат : AC-3
Формат/Информация : Audio Coding 3
Идентификатор кодека : A_AC3
Продолжительность : 1 ч. 47 м.
Вид битрейта : Постоянный
Битрейт : 192 Кбит/сек
Каналы : 2 канала
Расположение каналов : Front: L R
Частота : 48,0 КГц
Частота кадров : 31,250 кадров/сек (1536 SPF)
Битовая глубина : 16 бит
Метод сжатия : С потерями
Размер потока : 148 Мбайт (5%)
Default : Да
Forced : Нет
Реклама: присутствует



Скачать В.самое.пекло.Into.the.Inferno.(Вернер.Херцог).[2016.документальный.WEBRip].[720p].[MVO.(Синема.УС)].torrent без регистрации
Золото ЗОЛОТАЯ РАЗДАЧА! СКАЧАННОЕ НЕ ЗАСЧИТЫВАЕТСЯ! Золото
Дата: Зарегистрирован   [ Тип: внутренний ] Как тут cкачать?
MAGNET ссылка
MAGNET ссылка


Скачать .torrent

17 KB

Статус: проверено DHT
Скачан: торрент - 23 раз, раздача полностью - 1 раз
Размер: 3,19 GB
Оценка:  - (Голосов: 0)
Поблагодарили: 0
Поделиться ссылкой на эту раздачу с друзьями:
В контактеFacebookОдноклассникиTwitterLivejournalМой МирLiveinternet
 

 
Показать сообщения:    


Вы не можете начинать темы
Вы не можете отвечать на сообщения
Вы не можете редактировать свои сообщения
Вы не можете удалять свои сообщения
Вы не можете голосовать в опросах
Вы не можете прикреплять файлы к сообщениям
Вы можете скачивать файлы