Loading...
Error

Скачать Проклятие / The Grudge (Такаси Симидзу) [2004, ужасы, триллер, детектив, BDRip] [720p] [Dub] торрент без регистрации

Статистика раздачи
Размер:  3,44 GB   |    Скачан:  20 раз
Сидов:  1  [  0 KB/s  ]  
 
 
 
Автор Сообщение

Marsianka

[] 

Год выпуска: 2004
Оригинальное название: The Grudge
Страна: США, Япония
Жанр: ужасы, триллер, детектив
Возраст: 18+

Режиссер: Такаси Симидзу

В ролях: Сара Мишель Геллар, Мария Овчинникова, Джейсон Бер, Денис Беспалый, Уильям Мапотер, Александр Рахленко, Клеа ДюВалл, КаДи Стрикленд, Любовь Германова, Грэйс Забриски, Билл Пуллман, Юрий Деркач, Роза Блази, Тед Рэйми, Андрей Казанцев

Описание: Проклятие умерших обитает в местах, где они жили, поджидая новую жертву. Когда проклятие находит новую жертву — она умирает. А проклятие становится только сильнее. И так, убивая жертву за жертвой, однажды брошенное проклятие как вирус распространяется и плетет сеть ужаса…



Продолжительность: 01:31:22
Перевод: Дублированный
Оригинальная дорожка: нет

Релиз от:

Качество видео: BDRip 720p Исходник: Blu-Ray Remux (1080p) Формат: mp4
Видео кодек: MPEG-4 AVC Аудио кодек: AAC
Видео: 1280x720 (16:9) at 23.976 fps, AVC at 5 229 kbps avg, 0.237 bit/pixel
Аудио №1 Rus: 48.0 KHz, AAC, 2 ch, 160.0 Kbps
Субтитры: нет
Навигация по главам: есть
Размер: 3.44 GiB
avs [info]: 1280x720p 1:1 @ 24000/1001 fps (cfr)
x264 [info]: using SAR=1/1
x264 [info]: using cpu capabilities: MMX2 SSE2Fast SSSE3 Cache64
x264 [info]: profile High, level 4.1
x264 [info]: frame I:783 Avg QP:15.83 size:103246
x264 [info]: frame P:19994 Avg QP:19.06 size: 43797
x264 [info]: frame B:110671 Avg QP:20.68 size: 23740
x264 [info]: consecutive B-frames: 1.0% 0.5% 1.4% 5.2% 5.9% 44.3% 6.0% 4.6% 5.9% 2.7% 3.3% 16.0% 3.2%
x264 [info]: mb I I16..4: 4.7% 88.4% 6.9%
x264 [info]: mb P I16..4: 0.7% 10.4% 0.6% P16..4: 43.1% 24.1% 15.2% 0.2% 0.0% skip: 5.6%
x264 [info]: mb B I16..4: 0.0% 1.6% 0.1% B16..8: 47.2% 15.1% 3.5% direct: 9.1% skip:23.5% L0:49.3% L1:44.6% BI: 6.1%
x264 [info]: 8x8 transform intra:90.7% inter:70.5%
x264 [info]: coded y,uvDC,uvAC intra: 91.1% 71.6% 32.4% inter: 44.9% 35.8% 1.2%
x264 [info]: i16 v,h,dc,p: 57% 19% 7% 17%
x264 [info]: i8 v,h,dc,ddl,ddr,vr,hd,vl,hu: 12% 9% 35% 6% 9% 8% 7% 7% 7%
x264 [info]: i4 v,h,dc,ddl,ddr,vr,hd,vl,hu: 22% 13% 12% 7% 12% 11% 8% 8% 7%
x264 [info]: i8c dc,h,v,p: 60% 17% 18% 5%
x264 [info]: Weighted P-Frames: Y:7.4% UV:3.1%
x264 [info]: ref P L0: 37.9% 8.9% 18.4% 9.6% 7.4% 6.2% 5.1% 3.4% 2.9% 0.2% 0.0%
x264 [info]: ref B L0: 55.8% 16.6% 10.8% 5.9% 4.6% 3.9% 2.1% 0.4%
x264 [info]: ref B L1: 87.6% 12.4%
x264 [info]: kb/s:5229.49
encoded 131448 frames, 2.05 fps, 5229.49 kb/s
General
Complete name : ...Proklyatie_2004_KinoGadget.mp4
Format : MPEG-4
Format profile : Base Media
Codec ID : isom (isom)
File size : 3.44 GiB
Duration : 1 h 31 min
Overall bit rate mode : Variable
Overall bit rate : 5 396 kb/s
Movie name : Проклятие | KinoGadget
Performer : Такаси Симидзу
Director : Такаси Симидзу
Actor : Сара Мишель Геллар / Мария Овчинникова / Джейсон Бер / Денис Беспалый / Уильям Мапотер / Александр Рахленко / Клеа ДюВалл / КаДи Стрикленд / Любовь Германова / Грэйс Забриски / Билл Пуллман / Юрий Деркач / Роза Блази / Тед Рэйми / Андрей Казанцев / Рё Исибаси
Screenplay by : Стивен Саско / Такаси Симидзу
Producer : Сэм Рэйми / Роб Таперт / Даг Дэвисон
Genre : Horror, Mystery, Thriller
ContentType : Short Film
Recorded date : 2004
Encoded date : UTC 2018-01-15 09:01:46
Tagged date : UTC 2018-01-15 11:59:18
Cover : Yes
ContentRating : mpaa|PG-13|300|
LongDeion : Проклятие умерших обитает в местах, где они жили, поджидая новую жертву. Когда проклятие находит новую жертву — она умирает. А проклятие становится только сильнее. И так, убивая жертву за жертвой, однажды брошенное проклятие как вирус распространяется и плетет сеть ужаса…
HDVideo : Yes

Video
ID : 1
Format : AVC
Format/Info : Advanced Video Codec
Format profile : High@L4.1
Format settings : CABAC / 9 Ref Frames
Format settings, CABAC : Yes
Format settings, ReFrames : 9 frames
Codec ID : avc1
Codec ID/Info : Advanced Video Coding
Duration : 1 h 31 min
Bit rate : 5 229 kb/s
Maximum bit rate : 24.2 Mb/s
Width : 1 280 pixels
Height : 720 pixels
Display aspect ratio : 16:9
Frame rate mode : Constant
Frame rate : 23.976 (24000/1001) FPS
Color space : YUV
Chroma subsampling : 4:2:0
Bit depth : 8 bits
Scan type : Progressive
Bits/(Pixel*Frame) : 0.237
Stream size : 3.34 GiB (97%)
Writing library : x264 core 152 r2851 ba24899
Encoding settings : cabac=1 / ref=9 / deblock=1:-2:-1 / analyse=0x3:0x133 / me=umh / subme=7 / psy=1 / psy_rd=1.00:0.00 / mixed_ref=1 / me_range=32 / chroma_me=1 / trellis=2 / 8x8dct=1 / cqm=0 / deadzone=21,11 / fast_pskip=0 / chroma_qp_offset=-2 / threads=3 / lookahead_threads=1 / sliced_threads=0 / nr=0 / decimate=1 / interlaced=0 / bluray_compat=0 / constrained_intra=0 / bframes=12 / b_pyramid=2 / b_adapt=2 / b_bias=0 / direct=1 / weightb=1 / open_gop=0 / weightp=2 / keyint=250 / keyint_min=25 / scenecut=40 / intra_refresh=0 / rc_lookahead=60 / rc=crf / mbtree=1 / crf=19.0 / qcomp=0.60 / qpmin=0 / qpmax=69 / qpstep=4 / vbv_maxrate=62500 / vbv_bufsize=78125 / crf_max=0.0 / nal_hrd=none / filler=0 / ip_ratio=1.40 / aq=1:1.00
Encoded date : UTC 2018-01-14 16:25:41
Tagged date : UTC 2018-01-15 09:03:17

Audio
ID : 2
Format : AAC
Format/Info : Advanced Audio Codec
Format profile : LC
Codec ID : mp4a-40-2
Duration : 1 h 31 min
Bit rate mode : Variable
Bit rate : 160 kb/s
Maximum bit rate : 166 kb/s
Channel(s) : 2 channels
Channel positions : Front: L R
Sampling rate : 48.0 kHz
Frame rate : 46.875 FPS (1024 SPF)
Compression mode : Lossy
Stream size : 105 MiB (3%)
Language : Russian
Encoded date : UTC 2018-01-14 16:50:28
Tagged date : UTC 2018-01-15 09:03:17

Menu
Данный рип предназначен для просмотра на мобильных гаджетах с поддержкой формата mp4



Скачать Проклятие.The.Grudge.(Такаси.Симидзу).[2004.ужасы.триллер.детектив.BDRip].[720p].[Dub].torrent без регистрации
Золото ЗОЛОТАЯ РАЗДАЧА! СКАЧАННОЕ НЕ ЗАСЧИТЫВАЕТСЯ! Золото
Дата: Зарегистрирован   [ Тип: внутренний ] Как тут cкачать?
MAGNET ссылка
MAGNET ссылка


Скачать .torrent

18 KB

Статус: проверено DHT
Скачан: торрент - 20 раз, раздача полностью - 0 раз
Размер: 3,44 GB
Оценка:  - (Голосов: 0)
Поблагодарили: 0
Поделиться ссылкой на эту раздачу с друзьями:
В контактеFacebookОдноклассникиTwitterLivejournalМой МирLiveinternet
 

 
Показать сообщения:    


Вы не можете начинать темы
Вы не можете отвечать на сообщения
Вы не можете редактировать свои сообщения
Вы не можете удалять свои сообщения
Вы не можете голосовать в опросах
Вы не можете прикреплять файлы к сообщениям
Вы можете скачивать файлы