Loading...
Error

Скачать Сплит / Split (М. Найт Шьямалан) [2016, ужасы, триллер, UHD BDRemux] [2160p (4K HDR)] [Dub (лицензия)]+[MVO (Paradox&Omskbird)]+[AVO (Д. Есарев)]+[Eng]+[Sub Rus, Eng] торрент без регистрации

Статистика раздачи
Размер:  58,08 GB   |    Скачан:  25 раз
Сидов:  1  [  0 KB/s  ]  
 
 
 
Автор Сообщение

МихаНЕзатор

[] 

Информация о фильме
Название: Сплит
Оригинальное название: Split
Год выхода: 2016
Жанр: Ужасы, триллер
Режиссер: М. Найт Шьямалан

В ролях: Джеймс МакЭвой, Бетти Бакли, Иззи Коффи, Накия Диллард, Дэнн Финк, Кэш Гойнс, Розмари Ховард, Нил Хафф, Аня Тейлор-Джой

О фильме: Кевин — человек, в котором живет не менее двадцати трех личностей, вынужден похитить трех девушек подросткового возраста. Тем временем, пока они находятся в заточении, самая главная личность Кевина — Чудовище — материализуется



Страна: США
Студия: Blinding Edge Pictures, Blumhouse Productions
Продолжительность: 01:57:08
Перевод(ы):
#1: Дублированный | Лицензия
#2: Многоголосый закадровый | Paradox&Omskbird
#3: Авторский | Дмитрий Есарев

Файл
Качество: BDRemux 2160p
Видео: MPEG-H HEVC HDR Video, 3840x2160, 61.9 Mbit/s, 23.976 fps
Звук:
Аудио #01: 48 kHz, DTS, 5.1, 768 Kbps | Лицензия | RUS |
Аудио #02: 48 kHz, DTS, 5.1, 1510 Kbps | Paradox&Omskbird | RUS |
Аудио #03: 48 kHz, DTS-HD MA, 5.1, 3397 Kbps | Авторский | RUS |
Аудио #04: 48 kHz, DTS-HD MA, 5.1, 3408 Kbps | Оригинал | ENG |
Субтитры: Русские (forced, full), английские (full, SDH, SDH Colored)

АНОНСЫ ПОПУЛЯРНЫХ РАЗДАЧ
General
Unique ID : 130668687487890972232760970102613161351 (0x624DDFB18825CC23C348123897133587)
Complete name : G:VideoSSDSplit.2016.BDREMUX.2160p.4K.UltraHD.HEVC.HDR.ExKinoRay.mkv
Format : Matroska
Format version : Version 4 / Version 2
File size : 58.1 GiB
Duration : 1 h 57 min
Overall bit rate : 71.0 Mb/s
Movie name : Split 2016 from ExKinoRay
Encoded date : UTC 2018-01-16 20:59:44
Writing application : mkvmerge v20.0.0 ('I Am The Sun') 64-bit
Writing library : libebml v1.3.5 + libmatroska v1.4.8

Video
ID : 1
Format : HEVC
Format/Info : High Efficiency Video Coding
Format profile : Main 10@L5.1@High
Codec ID : V_MPEGH/ISO/HEVC
Duration : 1 h 57 min
Bit rate : 61.9 Mb/s
Width : 3 840 pixels
Height : 2 160 pixels
Display aspect ratio : 16:9
Frame rate mode : Constant
Frame rate : 23.976 (24000/1001) FPS
Color space : YUV
Chroma subsampling : 4:2:0 (Type 2)
Bit depth : 10 bits
Bits/(Pixel*Frame) : 0.311
Stream size : 50.6 GiB (87%)
Writing library : ATEME Titan File 3.7.9 (4.7.9.0)
Language : English
Default : Yes
Forced : No
Color range : Limited
Color primaries : BT.2020
Transfer characteristics : PQ
Matrix coefficients : BT.2020 non-constant
Mastering display color pri : R: x=0.680000 y=0.320000, G: x=0.265000 y=0.690000, B: x=0.150000 y=0.060000, White point: x=0.312700 y=0.329000
Mastering display luminance : min: 0.0050 cd/m2, max: 1000.0000 cd/m2
Maximum Content Light Level : 1000 cd/m2
Maximum Frame-Average Light : 71 cd/m2

Audio #1
ID : 2
Format : DTS
Format/Info : Digital Theater Systems
Codec ID : A_DTS
Duration : 1 h 57 min
Bit rate mode : Constant
Bit rate : 768 kb/s
Channel(s) : 6 channels
Channel positions : Front: L C R, Side: L R, LFE
Sampling rate : 48.0 kHz
Frame rate : 93.750 FPS (512 SPF)
Bit depth : 24 bits
Compression mode : Lossy
Stream size : 643 MiB (1%)
Title : Dub [License]
Language : Russian
Default : Yes
Forced : No

Audio #2
ID : 3
Format : DTS
Format/Info : Digital Theater Systems
Codec ID : A_DTS
Duration : 1 h 57 min
Bit rate mode : Constant
Bit rate : 1 510 kb/s
Channel(s) : 6 channels
Channel positions : Front: L C R, Side: L R, LFE
Sampling rate : 48.0 kHz
Frame rate : 93.750 FPS (512 SPF)
Bit depth : 24 bits
Compression mode : Lossy
Stream size : 1.24 GiB (2%)
Title : MVO
Language : Russian
Default : No
Forced : No

Audio #3
ID : 4
Format : DTS
Format/Info : Digital Theater Systems
Format profile : MA / Core
Codec ID : A_DTS
Duration : 1 h 57 min
Bit rate mode : Variable / Constant
Bit rate : 3 397 kb/s / 1 509 kb/s
Channel(s) : 6 channels
Channel positions : Front: L C R, Side: L R, LFE
Sampling rate : 48.0 kHz
Frame rate : 93.750 FPS (512 SPF)
Bit depth : 24 bits
Compression mode : Lossless / Lossy
Stream size : 2.78 GiB (5%)
Title : AVO
Language : Russian
Default : No
Forced : No

Audio #4
ID : 5
Format : DTS
Format/Info : Digital Theater Systems
Format profile : MA / Core
Codec ID : A_DTS
Duration : 1 h 57 min
Bit rate mode : Variable / Constant
Bit rate : 3 408 kb/s / 1 509 kb/s
Channel(s) : 6 channels
Channel positions : Front: L C R, Side: L R, LFE
Sampling rate : 48.0 kHz
Frame rate : 93.750 FPS (512 SPF)
Bit depth : 24 bits
Compression mode : Lossless / Lossy
Stream size : 2.79 GiB (5%)
Title : Original
Language : English
Default : No
Forced : No

Text #1
ID : 6
Format : UTF-8
Codec ID : S_TEXT/UTF8
Codec ID/Info : UTF-8 Plain Text
Duration : 1 h 52 min
Bit rate : 0 b/s
Count of elements : 18
Stream size : 460 Bytes (0%)
Title : Forced [License]
Language : Russian
Default : Yes
Forced : No

Text #2
ID : 7
Format : UTF-8
Codec ID : S_TEXT/UTF8
Codec ID/Info : UTF-8 Plain Text
Duration : 1 h 56 min
Bit rate : 58 b/s
Count of elements : 1226
Stream size : 49.4 KiB (0%)
Title : Full [License]
Language : Russian
Default : No
Forced : No

Text #3
ID : 8
Format : UTF-8
Codec ID : S_TEXT/UTF8
Codec ID/Info : UTF-8 Plain Text
Duration : 1 h 53 min
Bit rate : 43 b/s
Count of elements : 1274
Stream size : 36.3 KiB (0%)
Title : Full
Language : English
Default : No
Forced : No

Text #4
ID : 9
Format : UTF-8
Codec ID : S_TEXT/UTF8
Codec ID/Info : UTF-8 Plain Text
Duration : 1 h 51 min
Bit rate : 48 b/s
Count of elements : 1397
Stream size : 39.3 KiB (0%)
Title : SDH
Language : English
Default : No
Forced : No

Text #5
ID : 10
Format : UTF-8
Codec ID : S_TEXT/UTF8
Codec ID/Info : UTF-8 Plain Text
Duration : 1 h 53 min
Bit rate : 57 b/s
Count of elements : 1399
Stream size : 47.8 KiB (0%)
Title : SDH (Colored)
Language : English
Default : No
Forced : No

Menu
00:00:00.000 : en:Chapter 1
00:06:08.451 : en:Chapter 2
00:14:19.024 : en:Chapter 3
00:20:49.373 : en:Chapter 4
00:24:14.536 : en:Chapter 5
00:28:37.048 : en:Chapter 6
00:35:47.979 : en:Chapter 7
00:42:35.386 : en:Chapter 8
00:49:06.068 : en:Chapter 9
00:54:09.412 : en:Chapter 10
01:00:24.495 : en:Chapter 11
01:06:22.561 : en:Chapter 12
01:12:31.221 : en:Chapter 13
01:19:35.771 : en:Chapter 14
01:25:25.829 : en:Chapter 15
01:29:16.559 : en:Chapter 16
01:34:08.225 : en:Chapter 17
01:40:45.998 : en:Chapter 18
01:47:40.287 : en:Chapter 19
01:52:26.740 : en:Chapter 20



Скачать Сплит.Split.(М.Найт.Шьямалан).[2016.ужасы.триллер.UHD.BDRemux].[2160p.(4K.HDR)].[Dub.(лицензия)]+[MVO.(Paradox&Omskbird)]+[AVO.(Д.Есарев)]+[Eng]+[Sub.Rus.Eng].torrent без регистрации
Золото ЗОЛОТАЯ РАЗДАЧА! СКАЧАННОЕ НЕ ЗАСЧИТЫВАЕТСЯ! Золото
Дата: Зарегистрирован   [ Тип: внутренний ] Как тут cкачать?
MAGNET ссылка
MAGNET ссылка


Скачать .torrent

291 KB

Статус: проверено DHT
Скачан: торрент - 25 раз, раздача полностью - 10 раз
Размер: 58,08 GB
Оценка:  - (Голосов: 0)
Поблагодарили: 2
Поделиться ссылкой на эту раздачу с друзьями:
В контактеFacebookОдноклассникиTwitterLivejournalМой МирLiveinternet
 

 
Показать сообщения:    


Вы не можете начинать темы
Вы не можете отвечать на сообщения
Вы не можете редактировать свои сообщения
Вы не можете удалять свои сообщения
Вы не можете голосовать в опросах
Вы не можете прикреплять файлы к сообщениям
Вы можете скачивать файлы