Loading...
Error

Скачать Черная молния / Black Lightning (Сезон 01) (Салим Акил, Билле Вудрафф) [2018, фантастика, боевик, WEB-DLRip] [MVO] ("Profix Media") торрент без регистрации

Статистика раздачи
Размер:  5,82 GB   |    Скачан:  146 раз
Сидов:  1  [  0 KB/s  ]  
 
 
 
Автор Сообщение

leon030982

[] 

Черная молния / Black Lightning

Год выхода: 2018
Жанр: фантастика,  боевик
Страна: США
Студия: Akil Productions, Berlanti Productions, TLH Public Relations, Warner Bros. Television
Продолжительность: 1 x ~00:46:00
Перевод: Профессиональный (многоголосый) "Profix Media"

Режиссер: Салим Акил, Билле Вудрафф

В ролях: Грегг Генри, Кресс Уильямс, Нафиса Уильямс, Чайна Энн МакКлейн, Кристин Адамс,Донни Керрингтон, Чарлби Дин Крик, Шеин Момпремиа, Энтони Рейнольдс, Чантал Тхюй

О фильме: Сериал посвящен супергерою DC Черной молнии, который вынужден вернуться из добровольной отставки, когда опасная банда начинает угрожать спокойствию жителей его города.



Файл
Качество: WEB-DLRip
Кодек: XvID (AVI)
Видео: XvID, 720x400, 1500 Кбит/с, 23.976 fps
Аудио: AC3, 2 ch, 256 Кбит/с

Добавлена 13-я серия!
General
Complete name : E:\Black.Lightning.S01.WEBRip.Profix.Media\Black.Lightning.S01E01.WEBRip.Profix.Media.avi
Format : AVI
Format/Info : Audio Video Interleave
File size : 544 MiB
Duration : 42 min 50 s
Overall bit rate : 1 777 kb/s
Writing application : Lavf57.25.100

Video
ID : 0
Format : xvid
Codec ID : xvid
Duration : 42 min 50 s
Bit rate : 1 441 kb/s
Width : 720 pixels
Height : 400 pixels
Display aspect ratio : 16:9
Frame rate : 23.976 (24000/1001) FPS
Scan type : Progressive
Bits/(Pixel*Frame) : 0.209
Stream size : 442 MiB (81%)
Title : Video Track

Audio
ID : 1
Format : MPEG Audio
Format version : Version 1
Format profile : Layer 3
Format settings : Joint stereo
Mode : Joint stereo
Codec ID : 55
Codec ID/Hint : MP3
Duration : 42 min 50 s
Bit rate mode : Constant
Bit rate : 256 kb/s
Channel(s) : 2 channels
Sampling rate : 48.0 kHz
Compression mode : Lossy
Stream size : 78.4 MiB (14%)
Alignment : Aligned on interleaves
Title : Audio Track
Внимание! Раздача ведётся путём добавления новых серий; при каждом добавлении создаётся новый торрент. Чтобы начать докачку новой серии, пользователям необходимо сделать следующее:
(1) остановить скачивание,
(2) удалить старый торрент у себя из клиента (старые серии удалять не надо),
(3) скачать новый торрент и запустить его у себя в клиенте вместо старого, при этом указать клиенту путь в старую папку куда и должно происходить скачивание новых серий.

Ваш клиент при этом должен произвести хеширование (проверку) старой папки (если не производит сам - помогите ему сделать это), и будет докачивать только те серии которых у вас ещё нет. Старые серии при этом не удаляются, а продолжают раздаваться!

Eсли вы уже удалили старые серии, то предотвратить повторную закачку старых серий можно, отжав галочку в соответствующих местах при запуске нового торрента. По возможности, желательно не удалять старые серии как можно дольше чтобы релизёр не столько продолжал раздавать старые серии, а смог сконцентрироваться на новых.



Скачать Черная.молния.Black.Lightning.(Сезон.01).(Салим.Акил.Билле.Вудрафф).[2018.фантастика.боевик.WEB-DLRip].[MVO].("Profix.Media").torrent без регистрации
Золото ЗОЛОТАЯ РАЗДАЧА! СКАЧАННОЕ НЕ ЗАСЧИТЫВАЕТСЯ! Золото
Дата: Зарегистрирован   [ Тип: внутренний ] Как тут cкачать?
MAGNET ссылка
MAGNET ссылка


Скачать .torrent

16 KB

Статус: проверено DHT
Скачан: торрент - 146 раз, раздача полностью - 18 раз
Размер: 5,82 GB
Оценка:  - (Голосов: 0)
Поблагодарили: 0
Поделиться ссылкой на эту раздачу с друзьями:
В контактеFacebookОдноклассникиTwitterLivejournalМой МирLiveinternet
 

 
Показать сообщения:    


Вы не можете начинать темы
Вы не можете отвечать на сообщения
Вы не можете редактировать свои сообщения
Вы не можете удалять свои сообщения
Вы не можете голосовать в опросах
Вы не можете прикреплять файлы к сообщениям
Вы можете скачивать файлы