Loading...
Error

Скачать Путешествие времени / Voyage of Time: Life's Journey (Терренс Малик) [2016, документальный, фэнтези, BDRip] [720p] [Dub]x2 [iTunes]+[Оригинал Eng]+[Sub Eng] торрент без регистрации

Статистика раздачи
Размер:  3,63 GB   |    Скачан:  22 раза
Сидов:  1  [  0 KB/s  ]  
 
 
 
Автор Сообщение

Marsianka

[] 

Информация о фильме
Название: Путешествие времени
Оригинальное название: Voyage of Time: Life's Journey
Год выхода: 2016
Жанр: документальный, фэнтези
Режиссер: Терренс Малик
В ролях: Кейт Бланшетт, Джамал Кавил, Мэйша Диатта, Ягази Эмези, Дэрил Джеймс Харрис II, Себастьян Джексон, Абрахам Косгей, Руна Люсьенн, Тео Бонгани Ндьяльване, Жежуан Плэр

О фильме:
Невероятное путешествие в прошлое нашей планеты. Фильм, пропитанный энергией самой природы, сочетает в себе новаторские спецэффекты и удивительные кадры, снятые в разных уголках земного шара в попытках зафиксировать то, что живет веками и неподвластно времени.



Страна: Франция, Германия, США
Студия: Plan B Entertainment, River Road Entertainment
Продолжительность: 01:28:53
Перевод: Дублированный | Кинопремьера HD, iTunes

Файл
Качество: BDRip 720p
Видео: High@L4.1, 1280x692, ~4582 Kbit/s, 23.976 fps
Аудио #01: 48 kHz, AC3, 5.1, 448 Kbps | Дублированный | Кинопремьера HD | RUS |
Аудио #02: 48 kHz, AC3, 2.0, 256 Kbps | Дублированный | iTunes | RUS |
Аудио #03: 48 kHz, AC3, 5.1, 448 Kbps | Оригинал | ENG |
Субтитры: Английские
General
Unique ID : 273610033867379071758221467769977443999 (0xCDD7602FE82144ACF51CE4BF222C169F)
Complete name : C:UsersUserDesktopПутешествие времени.2016.DD.BLU-RAY.720p.[-=DoMiNo=-].mkv
Format : Matroska
Format version : Version 4 / Version 2
File size : 3.63 GiB
Duration : 1 h 28 min
Overall bit rate : 5 850 kb/s
Movie name : Путешествие времени
Deion : Невероятное путешествие в прошлое нашей планеты. Фильм, пропитанный энергией самой природы, сочетает в себе новаторские спецэффекты и удивительные кадры, снятые в разных уголках земного шара в попытках зафиксировать то, что живет веками и неподвластно времени.
Writing application : XviD4PSP 7.0.438 DAILY
Writing library : Lavf57.71.100
ErrorDetectionType : Per level 1
Attachments : poster.jpg
COUNTRY : Франция, Германия, США
DATE : 2016
DIRECTOR : Терренс Малик
GENRE : документальный, фэнтези
HD_VIDEO : 1
IMDB_RATING : 6.40
ITUNEXTC : mpaa|PG-13|300|
Language : und
MEDIA_TYPE : 9
ORIGINAL_ACTORS : Cate Blanchett, Jamal Cavil, Maisha Diatta, Yagazie Emezi, Daryl James Harris II, Sebastian Jackson, Abraham Kosgei, Runa Lucienne, Theo Bongani Ndyalvane (в титрах: Theophilus Bongani Ndyalvane), Jejuan Plair, Gabi Rojas, Shaun Ross, Mechelle Tunstall, Sanetra Stewart, Blane E. Warrior II
ORIGINAL_TITLE : Voyage of Time: Life's Journey
PRODUCER : Брэд Питт, Тэннер Бирд, Мэри Бинг, Ив Шевалье, Джини Дейанени, Грег Элиасон, Деде Гарднер, Дэн Гласс, Эшер Голдштейн, Николас Гонда, Ханс Граффундер, Сара Грин, Дэниэл Хэммонд, Гэбриел Хэммонд, Грант Хилл, Христос Константакопулос, Виктор Мойерс, Жак Перрен, Уильям Полад, Райан Реттиг, Дональд Розенфельд, Тайлер Сэвадж, Софоклес Тасиоулис
RATING : 6.200
WRITER : Терренс Малик

Video
ID : 1
Format : AVC
Format/Info : Advanced Video Codec
Format profile : High@L4.1
Format settings : CABAC / 8 Ref Frames
Format settings, CABAC : Yes
Format settings, ReFrames : 8 frames
Codec ID : V_MPEG4/ISO/AVC
Duration : 1 h 28 min
Bit rate : 4 582 kb/s
Width : 1 280 pixels
Height : 692 pixels
Display aspect ratio : 1.85:1
Frame rate mode : Constant
Frame rate : 23.976 (24000/1001) FPS
Color space : YUV
Chroma subsampling : 4:2:0
Bit depth : 8 bits
Scan type : Progressive
Bits/(Pixel*Frame) : 0.216
Stream size : 2.84 GiB (78%)
Title : BLU-RAY_720p_RIP_BY_-=DoMiNo=-
Writing library : x264 core 155 r2893M b00bcaf
Encoding settings : cabac=1 / ref=8 / deblock=1:-3:-3 / analyse=0x3:0x133 / me=umh / subme=10 / psy=1 / psy_rd=1.00:0.05 / mixed_ref=1 / me_range=32 / chroma_me=1 / trellis=2 / 8x8dct=1 / cqm=0 / deadzone=21,11 / fast_pskip=1 / chroma_qp_offset=-3 / threads=5 / lookahead_threads=1 / sliced_threads=0 / nr=0 / decimate=1 / interlaced=0 / bluray_compat=0 / constrained_intra=0 / bframes=9 / b_pyramid=2 / b_adapt=2 / b_bias=0 / direct=3 / weightb=1 / open_gop=0 / weightp=2 / keyint=240 / keyint_min=24 / scenecut=40 / intra_refresh=0 / rc_lookahead=60 / rc=crf / mbtree=1 / crf=18.0 / qcomp=0.60 / qpmin=0 / qpmax=69 / qpstep=4 / ip_ratio=1.40 / aq=1:1.00
Language : English
Default : Yes
Forced : No
Color range : Limited
Color primaries : BT.709
Transfer characteristics : BT.709
Matrix coefficients : BT.709

Audio #1
ID : 2
Format : AC-3
Format/Info : Audio Coding 3
Codec ID : A_AC3
Duration : 1 h 28 min
Bit rate mode : Constant
Bit rate : 448 kb/s
Channel(s) : 6 channels
Channel positions : Front: L C R, Side: L R, LFE
Sampling rate : 48.0 kHz
Frame rate : 31.250 FPS (1536 SPF)
Bit depth : 16 bits
Compression mode : Lossy
Stream size : 285 MiB (8%)
Title : Dub [Кинопремьера HD]
Language : Russian
Service kind : Complete Main
Default : Yes
Forced : No

Audio #2
ID : 3
Format : AC-3
Format/Info : Audio Coding 3
Codec ID : A_AC3
Duration : 1 h 28 min
Bit rate mode : Constant
Bit rate : 256 kb/s
Channel(s) : 2 channels
Channel positions : Front: L R
Sampling rate : 48.0 kHz
Frame rate : 31.250 FPS (1536 SPF)
Bit depth : 16 bits
Compression mode : Lossy
Stream size : 163 MiB (4%)
Title : iTunes
Language : Russian
Service kind : Complete Main
Default : No
Forced : No

Audio #3
ID : 4
Format : AC-3
Format/Info : Audio Coding 3
Codec ID : A_AC3
Duration : 1 h 28 min
Bit rate mode : Constant
Bit rate : 448 kb/s
Channel(s) : 6 channels
Channel positions : Front: L C R, Side: L R, LFE
Sampling rate : 48.0 kHz
Frame rate : 31.250 FPS (1536 SPF)
Bit depth : 16 bits
Compression mode : Lossy
Stream size : 285 MiB (8%)
Title : Original
Language : English
Service kind : Complete Main
Default : No
Forced : No

Text
ID : 5
Format : UTF-8
Codec ID : S_TEXT/UTF8
Codec ID/Info : UTF-8 Plain Text
Title : Full
Language : English
Default : Yes
Forced : No

Menu
00:00:00.000 : :Chapter 1
00:11:59.427 : :Chapter 2
00:22:30.640 : :Chapter 3
00:33:56.075 : :Chapter 4
00:45:04.535 : :Chapter 5
00:55:10.348 : :Chapter 6
01:06:25.022 : :Chapter 7
01:15:21.892 : :Chapter 8
01:23:48.148 : :Chapter 9



Скачать Путешествие.времени.Voyage.of.Time.Life's.Journey.(Терренс.Малик).[2016.документальный.фэнтези.BDRip].[720p].[Dub]x2.[iTunes]+[Оригинал.Eng]+[Sub.Eng].torrent без регистрации
Золото ЗОЛОТАЯ РАЗДАЧА! СКАЧАННОЕ НЕ ЗАСЧИТЫВАЕТСЯ! Золото
Дата: Зарегистрирован   [ Тип: внутренний ] Как тут cкачать?
MAGNET ссылка
MAGNET ссылка


Скачать .torrent

19 KB

Статус: проверено DHT
Скачан: торрент - 22 раз, раздача полностью - 1 раз
Размер: 3,63 GB
Оценка:  - (Голосов: 0)
Поблагодарили: 0
Поделиться ссылкой на эту раздачу с друзьями:
В контактеFacebookОдноклассникиTwitterLivejournalМой МирLiveinternet
 

 
Показать сообщения:    


Вы не можете начинать темы
Вы не можете отвечать на сообщения
Вы не можете редактировать свои сообщения
Вы не можете удалять свои сообщения
Вы не можете голосовать в опросах
Вы не можете прикреплять файлы к сообщениям
Вы можете скачивать файлы