Loading...
Error

Скачать Драконовые девушки / Drachenmädchen (Иниго Вестмайер) [2012, документальный, боевик, биография, драма, спорт, BDRip] [720p] [MVO (24DOC)] торрент без регистрации

Статистика раздачи
Размер:  2,26 GB   |    Скачан:  14 раз
Сидов:  1  [  0 KB/s  ]  
 
 
 
Автор Сообщение

Marsianka

[] 

Информация о фильме
Название: Драконовые девушки
Оригинальное: Drachenmädchen
Год выхода: 2012
Жанр: документальный, боевик, биография, драма, спорт
Режиссер: Иниго Вестмайер

О фильме:
В одной из китайских школ воспитывается около 35 000 детей, - мальчиков и девочек, истово тренирующихся с утра до ночи, оттачивающих каждое движение с мечом или с палкой, превращающихся в мастеров кун-фу. В этой муштре – мало философии и много дисциплины, мало образования и много жестоких тренировок. Что будет с этими детьми после окончания этой школы, больше похожей на армейский лагерь? К чему приведёт тенденция отсылать детей в интернаты, чтобы освободить время для зарабатывания денег? И чем в будущем ответят дети своим родителям, избавившим их от своей любви и заботы? История трёх китайских девочек которые готовятся стать бойцами кун-фу в школе "Дракона", расположенной рядом с монастырём Шаолинь. Здесь дети соблюдают строжайшие правила поведения и неукоснительно выполняют любые приказы наставников. Их превращают в боевых роботов, но если заглянуть поглубже – они оказываются самыми обычными детьми.



Страна: Германия, Китай
Студия: GAP Films, Open Window Film, Bayerischer Rundfunk, ARTE, Heimatfilm
Продолжительность: 01:30:11
Перевод: Профессиональный (многоголосый, закадровый) [24DOC]

Файл
Кодек: MPEG-4 AVC
Качество: BDRip 720p
Видео: 1280х720, 3461 Кбит/с, 25 кадр/с
Звук: AC3, 2 канала, 128 Кбит/с
Общее
Уникальный идентификатор : 294120487164102305524638973093986992323 (0xDD458B9BF91D0F0487FFD680237080C3)
Полное имя : C:UsersDDesktopДРАКОНОВЫЕ ДЕВУШКИ.mkv
Формат : Matroska
Версия формата : Version 4 / Version 2
Размер файла : 2,26 Гбайт
Продолжительность : 1 ч. 30 м.
Общий поток : 3591 Кбит/сек
Дата кодирования : UTC 2018-01-17 10:18:45
Программа кодирования : mkvmerge v20.0.0 ('I Am The Sun') 64-bit
Библиотека кодирования : libebml v1.3.5 + libmatroska v1.4.8

Видео
Идентификатор : 1
Формат : AVC
Формат/Информация : Advanced Video Codec
Профиль формата : High@L3.1
Настройки формата : CABAC / 5 Ref Frames
Параметр CABAC формата : Да
Параметр RefFrames формата : 5 кадров
Идентификатор кодека : V_MPEG4/ISO/AVC
Продолжительность : 1 ч. 30 м.
Битрейт : 3461 Кбит/сек
Ширина : 1280 пикселей
Высота : 720 пикселей
Соотношение сторон : 16:9
Режим частоты кадров : Постоянный
Частота кадров : 25,000 кадров/сек
Цветовое пространство : YUV
Субдискретизация насыщенности : 4:2:0
Битовая глубина : 8 бит
Тип развёртки : Прогрессивная
Бит/(Пиксели*Кадры) : 0.150
Размер потока : 2,18 Гбайт (96%)
Библиотека кодирования : x264 core 138 r2358 9e941d1
Настройки программы : cabac=1 / ref=5 / deblock=1:0:0 / analyse=0x3:0x133 / me=umh / subme=9 / psy=1 / psy_rd=1.00:0.00 / mixed_ref=1 / me_range=24 / chroma_me=1 / trellis=1 / 8x8dct=1 / cqm=0 / deadzone=21,11 / fast_pskip=1 / chroma_qp_offset=-2 / threads=12 / lookahead_threads=1 / sliced_threads=0 / nr=0 / decimate=1 / interlaced=0 / bluray_compat=0 / constrained_intra=0 / bframes=5 / b_pyramid=2 / b_adapt=2 / b_bias=0 / direct=1 / weightb=1 / open_gop=0 / weightp=2 / keyint=250 / keyint_min=25 / scenecut=40 / intra_refresh=0 / rc_lookahead=40 / rc=crf / mbtree=1 / crf=16.0 / qcomp=0.60 / qpmin=0 / qpmax=69 / qpstep=4 / ip_ratio=1.40 / aq=1:1.00 / zones=134174,135285,q=41
Default : Да
Forced : Нет
Цветовой диапазон : Limited
Основные цвета : BT.709
Характеристики трансфера : BT.709
Коэффициенты матрицы : BT.709

Аудио
Идентификатор : 2
Формат : AC-3
Формат/Информация : Audio Coding 3
Идентификатор кодека : A_AC3
Продолжительность : 1 ч. 30 м.
Вид битрейта : Постоянный
Битрейт : 128 Кбит/сек
Каналы : 2 канала
Расположение каналов : Front: L R
Частота : 48,0 КГц
Частота кадров : 31,250 кадров/сек (1536 SPF)
Битовая глубина : 16 бит
Метод сжатия : С потерями
Размер потока : 82,4 Мбайт (4%)
Язык : Russian
Default : Да
Forced : Нет



Скачать Драконовые.девушки.Drachenmädchen.(Иниго.Вестмайер).[2012.документальный.боевик.биография.драма.спорт.BDRip].[720p].[MVO.(24DOC)].torrent без регистрации
Золото ЗОЛОТАЯ РАЗДАЧА! СКАЧАННОЕ НЕ ЗАСЧИТЫВАЕТСЯ! Золото
Дата: Зарегистрирован   [ Тип: внутренний ] Как тут cкачать?
MAGNET ссылка
MAGNET ссылка


Скачать .torrent

12 KB

Статус: проверено DHT
Скачан: торрент - 14 раз, раздача полностью - 2 раз
Размер: 2,26 GB
Оценка:  - (Голосов: 0)
Поблагодарили: 0
Поделиться ссылкой на эту раздачу с друзьями:
В контактеFacebookОдноклассникиTwitterLivejournalМой МирLiveinternet
 

 
Показать сообщения:    


Вы не можете начинать темы
Вы не можете отвечать на сообщения
Вы не можете редактировать свои сообщения
Вы не можете удалять свои сообщения
Вы не можете голосовать в опросах
Вы не можете прикреплять файлы к сообщениям
Вы можете скачивать файлы