Loading...
Error

Скачать Мертвый сезон (Савва Кулиш) [1969, драма, криминал, приключения, DVDRip-AVC] торрент без регистрации

Статистика раздачи
Размер:  2,92 GB   |    Скачан:  12 раз
Сидов:  2  [  0 KB/s  ]  
 
 
 
Автор Сообщение

Marsianka

[] 

Мертвый сезон


Страна: СССР
Студия: ЛенФильм
Жанр: драма, криминал, приключения
Год выпуска: официально 1969, в титрах 1968
Продолжительность: 02:10:38
Перевод: Не требуется

Режиссер: Савва Кулиш
В ролях: Донатас Банионис, Ролан Быков, Сергей Курилов, Геннадий Юхтин, Бруно Фрейндлих,
Светлана Коркошко, Юри Ярвет, Антс Эскола, Леонхард Мерзин, Эйнари Коппель

Описание: В аэропорту одной из европейских стран убит связной между доктором Хаасом и западногерманской разведкой.
В кармане убитого обнаружена шифровка о закупке сырья для массового производства газа Эр-Эйч. Необходимо пояснить следующее: в одном из западных курортных городков под вывеской фармацевтического центра немецкий военный преступник доктор Хаас заканчивает работу над новым психо-химическим оружием — газом Эр-Эйч....



Доп. Информация: Крупный План, Реставрация

Кодек: х264
Качество: DVDRip-AVC
Видео: MPEG-4 AVC, 716х432@1018x432, 25 fps, 2300 Кбит/с
Аудио 1: Русский, (Dolby AC3, 48 kHz, 6 ch, 448 Кбит/с), (Dolby AC3, 48 kHz, 1 ch, 448 Кбит/с)
Субтитры: Нет

x264 [info]: frame I:991 Avg QP:13.95 size: 57248
x264 [info]: frame P:45394 Avg QP:16.23 size: 24760
x264 [info]: frame B:149587 Avg QP:18.14 size: 7173

Общее
Уникальный идентификатор : 201690105632375010472362838786011156210 (0x97BC19F4DA38D17EA16254F7408DCEF2)
Полное имя : E:Мои рипыМертвый сезон 1969_DVDRip-AVC_KORSAR.mkv
Формат : Matroska
Версия формата : Version 2
Размер файла : 2,92 Гбайт
Продолжительность : 2 ч. 10 м.
Общий поток : 3198 Кбит/сек
Дата кодирования : UTC 2018-01-16 06:37:19
Программа кодирования : mkvmerge v5.8.0 ('No Sleep / Pillow') built on Sep 2 2012 15:37:04
Библиотека кодирования : libebml v1.2.3 + libmatroska v1.3.0

Видео
Идентификатор : 1
Формат : AVC
Формат/Информация : Advanced Video Codec
Профиль формата : High@L4.1
Настройки формата : CABAC / 16 Ref Frames
Параметр CABAC формата : Да
Параметр RefFrames формата : 16 кадров
Идентификатор кодека : V_MPEG4/ISO/AVC
Продолжительность : 2 ч. 10 м.
Битрейт : 2300 Кбит/сек
Ширина : 716 пикселей
Высота : 432 пикселя
Соотношение сторон : 2,35:1
Соотношение сторон в оригинале : 2,35:1
Режим частоты кадров : Постоянный
Частота кадров : 25,000 кадров/сек
Цветовое пространство : YUV
Субдискретизация насыщенности : 4:2:0
Битовая глубина : 8 бит
Тип развёртки : Прогрессивная
Бит/(Пиксели*Кадры) : 0.297
Размер потока : 2,04 Гбайт (70%)
Библиотека кодирования : x264 core 152 r2851kMod ba24899
Настройки программы : cabac=1 / ref=16 / deblock=1:-2:-1 / analyse=0x3:0x133 / me=umh / subme=11 / psy=1 / fade_compensate=0.00 / psy_rd=1.05:0.10 / mixed_ref=1 / me_range=48 / chroma_me=1 / trellis=2 / 8x8dct=1 / cqm=0 / deadzone=21,11 / fast_pskip=0 / chroma_qp_offset=-3 / threads=12 / lookahead_threads=3 / sliced_threads=0 / nr=0 / decimate=0 / interlaced=0 / bluray_compat=0 / constrained_intra=0 / bframes=16 / b_pyramid=2 / b_adapt=2 / b_bias=0 / direct=3 / weightb=1 / open_gop=0 / weightp=2 / keyint=250 / keyint_min=25 / scenecut=40 / intra_refresh=0 / rc_lookahead=40 / rc=2pass / mbtree=0 / bitrate=2300 / ratetol=1.0 / qcomp=0.60 / qpmin=0 / qpmax=39 / qpstep=4 / cplxblur=20.0 / qblur=0.5 / vbv_maxrate=50000 / vbv_bufsize=62500 / nal_hrd=none / filler=0 / ip_ratio=1.25 / pb_ratio=1.30 / aq=1:0.90
Язык : English
Default : Да
Forced : Нет
Цветовой диапазон : Limited
Основные цвета : BT.601 PAL
Характеристики трансфера : BT.470 System B, BT.470 System G
Коэффициенты матрицы : BT.470 System B, BT.470 System G

Аудио #1
Идентификатор : 2
Формат : AC-3
Формат/Информация : Audio Coding 3
Параметр Endianness формата : Big
Идентификатор кодека : A_AC3
Продолжительность : 2 ч. 10 м.
Вид битрейта : Постоянный
Битрейт : 448 Кбит/сек
Каналы : 6 каналов
Расположение каналов : Front: L C R, Side: L R, LFE
Частота : 48,0 КГц
Частота кадров : 31,250 кадров/сек (1536 SPF)
Битовая глубина : 16 бит
Метод сжатия : С потерями
Размер потока : 419 Мбайт (14%)
Язык : Russian
Default : Да
Forced : Нет

Аудио #2
Идентификатор : 3
Формат : AC-3
Формат/Информация : Audio Coding 3
Параметр Endianness формата : Big
Идентификатор кодека : A_AC3
Продолжительность : 2 ч. 10 м.
Вид битрейта : Постоянный
Битрейт : 448 Кбит/сек
Каналы : 1 канал
Расположение каналов : Front: C
Частота : 48,0 КГц
Частота кадров : 31,250 кадров/сек (1536 SPF)
Битовая глубина : 16 бит
Метод сжатия : С потерями
Размер потока : 419 Мбайт (14%)
Язык : Russian
Default : Нет
Forced : Нет



Скачать Мертвый.сезон.(Савва.Кулиш).[1969.драма.криминал.приключения.DVDRip-AVC].torrent без регистрации
Золото ЗОЛОТАЯ РАЗДАЧА! СКАЧАННОЕ НЕ ЗАСЧИТЫВАЕТСЯ! Золото
Дата: Зарегистрирован   [ Тип: внешний ] Как тут cкачать?
MAGNET ссылка
MAGNET ссылка


Скачать .torrent

16 KB

Статус: проверено DHT
Скачан: торрент - 12 раз, раздача полностью - 6 раз
Размер: 2,92 GB
Оценка:  - (Голосов: 0)
Поблагодарили: 0
Поделиться ссылкой на эту раздачу с друзьями:
В контактеFacebookОдноклассникиTwitterLivejournalМой МирLiveinternet
 

 
Показать сообщения:    


Вы не можете начинать темы
Вы не можете отвечать на сообщения
Вы не можете редактировать свои сообщения
Вы не можете удалять свои сообщения
Вы не можете голосовать в опросах
Вы не можете прикреплять файлы к сообщениям
Вы можете скачивать файлы