Loading...
Error

Скачать На дорогах войны (Леон Сааков) [1959, военный, SATRip-AVC] торрент без регистрации

Статистика раздачи
Размер:  1,09 GB   |    Скачан:  16 раз
Сидов:  9  [  0 KB/s  ]  
 
 
 
Автор Сообщение

Marsianka

[] 

Страна: СССР
Производство: Мосфильм

Жанр: военный
Год выпуска: 1959
Продолжительность: 01:21:58

Перевод: Не требуется
Cубтитры: нет
Оригинальная аудиодорожка: русский

Режиссер: Леон Сааков

В ролях:
Всеволод Санаев, Анатолий Кузнецов, Юрий Соловьёв, Евгений Шутов, Ия Арепина, Харальд Страхов, Борис Муравьев, Юлия Цоглин, Олег Мокшанцев, Юрий Киреев, Михаил Бочаров...
Об актёрах подробней

Описание:
Прообразом героя картины стал военный кинооператор Владимир Сущинский, погибший под Бреслау в феврале 1945 года с кинокамерой в руках. Великая Отечественная война. От Москвы до Севастополя и от Мурманска до Москвы - везде смерть, беды, потери. Кинооператор Владимир Сушков (Анатолий Кузнецов). Про него можно сказать словами из звучащей в фильме "Песни о Севастополе": "Я по стольким дорогам протопал". Он снимает суровую повесть о неизвестных героях и каждовневном подвиге всех тех, кто был на войне.

Исходник: DVB
Качество видео: SATRip-AVC
Формат видео: MKV

Видео: 688->760х570 (4:3), 25 fps, H264 ~ 1708 kbps avg, 0.174 bit/pixel
Аудио: 48 kHz, Dolby Digital AC3 2.0, 192 kbps

Раздача от:

Общее
Полное имя : Na.dorogah.voyny.1959.SATRip-AVC_[New-team]_by_AVP_Studio.mkv
Формат : Matroska
Версия формата : Version 2
Размер файла : 1,09 Гбайт
Продолжительность : 1 ч. 21 м.
Общий поток : 1902 Кбит/сек
Дата кодирования : UTC 2018-01-17 15:24:11
Программа кодирования : mkvmerge v6.1.0 ('Old Devil') built on Mar 4 2013 09:10:42
Библиотека кодирования : libebml v1.3.0 + libmatroska v1.4.0

Видео
Идентификатор : 1
Формат : AVC
Формат/Информация : Advanced Video Codec
Профиль формата : High@L4.1
Настройки формата : CABAC / 10 Ref Frames
Параметр CABAC формата : Да
Параметр RefFrames формата : 10 кадров
Идентификатор кодека : V_MPEG4/ISO/AVC
Продолжительность : 1 ч. 21 м.
Битрейт : 1708 Кбит/сек
Ширина : 688 пикселей
Высота : 570 пикселей
Соотношение сторон : 4:3
Режим частоты кадров : Постоянный
Частота кадров : 25,000 кадров/сек
Цветовое пространство : YUV
Субдискретизация насыщенности : 4:2:0
Битовая глубина : 8 бит
Тип развёртки : Прогрессивная
Бит/(Пиксели*Кадры) : 0.174
Размер потока : 980 Мбайт (88%)
Библиотека кодирования : x264 core 130 r2273 b3065e6
Настройки программы : cabac=1 / ref=10 / deblock=1:-2:-1 / analyse=0x3:0x113 / me=umh / subme=10 / psy=1 / psy_rd=1.00:0.00 / mixed_ref=1 / me_range=32 / chroma_me=1 / trellis=2 / 8x8dct=1 / cqm=0 / deadzone=21,11 / fast_pskip=1 / chroma_qp_offset=-2 / threads=6 / lookahead_threads=1 / sliced_threads=0 / nr=0 / decimate=0 / interlaced=0 / bluray_compat=0 / constrained_intra=0 / bframes=8 / b_pyramid=2 / b_adapt=2 / b_bias=0 / direct=3 / weightb=1 / open_gop=0 / weightp=2 / keyint=250 / keyint_min=25 / scenecut=40 / intra_refresh=0 / rc=2pass / mbtree=0 / bitrate=1708 / ratetol=1.0 / qcomp=0.60 / qpmin=0 / qpmax=69 / qpstep=4 / cplxblur=20.0 / qblur=0.5 / ip_ratio=1.40 / pb_ratio=1.30 / aq=1:1.00
Default : Да
Forced : Нет

Аудио
Идентификатор : 2
Формат : AC-3
Формат/Информация : Audio Coding 3
Идентификатор кодека : A_AC3
Продолжительность : 1 ч. 21 м.
Вид битрейта : Постоянный
Битрейт : 192 Кбит/сек
Каналы : 2 канала
Расположение каналов : Front: L R
Частота : 48,0 КГц
Частота кадров : 31,250 кадров/сек (1536 SPF)
Битовая глубина : 16 бит
Метод сжатия : С потерями
Размер потока : 113 Мбайт (10%)
Default : Да
Forced : Нет



Скачать На.дорогах.войны.(Леон.Сааков).[1959.военный.SATRip-AVC].torrent без регистрации
Золото ЗОЛОТАЯ РАЗДАЧА! СКАЧАННОЕ НЕ ЗАСЧИТЫВАЕТСЯ! Золото
Дата: Зарегистрирован   [ Тип: внешний ] Как тут cкачать?
MAGNET ссылка
MAGNET ссылка


Скачать .torrent

12 KB

Статус: проверено DHT
Скачан: торрент - 16 раз, раздача полностью - 2 раз
Размер: 1,09 GB
Оценка:  5 (Голосов: 1)
Поблагодарили: 2
Поделиться ссылкой на эту раздачу с друзьями:
В контактеFacebookОдноклассникиTwitterLivejournalМой МирLiveinternet
 

 
Показать сообщения:    


Вы не можете начинать темы
Вы не можете отвечать на сообщения
Вы не можете редактировать свои сообщения
Вы не можете удалять свои сообщения
Вы не можете голосовать в опросах
Вы не можете прикреплять файлы к сообщениям
Вы можете скачивать файлы