Loading...
Error

Скачать BBC: Мир с высоты птичьего полёта / Earthflight (Джон Даунер) [2011, документальный, природа, птицы, животные, флора, фауна, видовой, BDRemux] [1080p] [AVO (Юрий Сербин)] торрент без регистрации

Статистика раздачи
Размер:  74,23 GB   |    Скачан:  29 раз
Сидов:  1  [  0 KB/s  ]  
 
 
 
Автор Сообщение

Marsianka

[] 

Информация о фильме
Название: Мир с высоты птичьего полёта
Оригинальное название: Earthflight
Год выхода: 2011-2012
Жанр: документальный, природа, птицы, животные, флора, фауна, видовой
Режиссер: Джон Даунер

О фильме:
Документальный сериал о том, какой предстаёт нашему взору Земля с высоты птичьего полёта, глазами самих птиц, в грандиозном природном калейдоскопе. Потрясающие виды пяти континентов, поданные в новом ракурсе в этом шести серийном фильме, благодаря которому можно присоединиться к стае лапландских гусей, журавлей, фламинго, пеликанов, орлов и прочей птичьей братии. Для создания фильма были использованы последние технологии воздушных съёмок, чтобы мы смогли в мельчайших деталях увидеть всю мощь природы.



Страна: Великобритания
Студия: John Downer Productions Ltd.
Продолжительность: 6 x 00:59:15
Перевод: Авторский (Юрий Сербин)

Файл
Кодек: MPEG-4 AVC
Качество: BDRemux 1080p
Видео: 1920х1080, 29,0 Мбит/с, 25 кадр/с
Звук: DTS-HD MA, 2 канала, 1152 Кбит/с
1. Северная Америка
В Южной части Северной Америки, в Мексиканском заливе наступила весна. Стаи белых гусей скоро отправятся в далёкое путешествие через континент. В нём примут участие многие миллионы птиц. Перед отлётом отдельные группы птиц сливаются с тысячами других гусей, готовых отправиться на север. Одна стая состоит из сотен таких групп. Это грандиозное сборище не может остаться незамеченным.

2. Африка
Эта история начинается над самой южной оконечностью Африки. Пролетая над Столовой горой возле Кейптауна, сложно понять, что там колышется в открытом море. Над океаном происходит великое воссоединение. Важный секрет известен птице Олуше. Это род крупных морских птиц отряда Пеликанообразных. Они свободно парят над океаном и добывают рыбу и кальмаров, ныряя в воду с высоты 10—100 метров на глубину до 25 метров.

3. Европа
В этой серии мы проследим за судьбой аистов, которые пытаются достичь территории, где проходит их размножение. Путешествуя вместе с птицами, мы узнаем немало интересного о животном мире Европы. И увидим такое, чего мы ещё никогда не видели.

4. Южная Америка
Вслед за попугаями ара мы отправимся в необыкновенное путешествие, чтобы раскрыть тайны южноамериканского континента.

5. Азия и Австралия
Мы отправляемся в путешествие по Азии и Австралии, чтобы увидеть эти континенты глазами птиц.

6. Летая высоко
В этой серии мы посмотрим на тесные отношения между птицами и людьми, которые дали возможность нашей программе расправить крылья и увидеть мир с высоты птичьего полёта.
Полное имя : C:UsersDVideosМИР С ВЫСОТЫ ПТИЧЬЕГО ПОЛЁТА1. СЕВЕРНАЯ АМЕРИКА.mkv
Формат : Matroska
Версия формата : Version 4 / Version 2
Размер файла : 12,5 Гбайт
Продолжительность : 59 м. 15 с.
Режим общего битрейта : Переменный
Общий поток : 30,1 Мбит/сек
Дата кодирования : UTC 2018-01-20 08:46:53
Программа кодирования : mkvmerge v20.0.0 ('I Am The Sun') 64-bit
Библиотека кодирования : libebml v1.3.5 + libmatroska v1.4.8

Видео
Идентификатор : 1
Формат : AVC
Формат/Информация : Advanced Video Codec
Профиль формата : High@L4.1
Настройки формата : CABAC / 4 Ref Frames
Параметр CABAC формата : Да
Параметр RefFrames формата : 4 кадра
Идентификатор кодека : V_MPEG4/ISO/AVC
Продолжительность : 59 м. 15 с.
Вид битрейта : Переменный
Битрейт : 29,0 Мбит/сек
Максимальный битрейт : 34,0 Мбит/сек
Ширина : 1920 пикселей
Высота : 1080 пикселей
Соотношение сторон : 16:9
Режим частоты кадров : Переменный
Частота кадров : 50,000 кадров/сек
Частота кадров в оригинале : 25,000 кадров/сек
Стандарт вещания : PAL
Цветовое пространство : YUV
Субдискретизация насыщенности : 4:2:0
Битовая глубина : 8 бит
Тип развёртки : Чересстрочная
Метод сохранения типа развёртки : Раздельные поля
Порядок развёртки : Верхнее поле первое
Бит/(Пиксели*Кадры) : 0.279
Размер потока : 12,0 Гбайт (96%)
Default : Да
Forced : Нет
Цветовой диапазон : Limited
Основные цвета : BT.709
Характеристики трансфера : BT.709
Коэффициенты матрицы : BT.709

Аудио
Идентификатор : 2
Формат : DTS
Формат/Информация : Digital Theater Systems
Профиль формата : MA / Core
Идентификатор кодека : A_DTS
Продолжительность : 59 м. 15 с.
Вид битрейта : Переменный / Постоянный
Битрейт : 1152 Кбит/сек / 768 Кбит/сек
Каналы : 2 канала
Расположение каналов : Front: L R
Частота : 48,0 КГц
Частота кадров : 93,750 кадра/сек (512 SPF)
Битовая глубина : 16 бит
Метод сжатия : Без потерь / Lossy
Размер потока : 490 Мбайт (4%)
Заголовок : Юрий Сербин
Язык : Russian
Default : Да
Forced : Нет



Скачать BBC.Мир.с.высоты.птичьего.полёта.Earthflight.(Джон.Даунер).[2011.документальный.природа.птицы.животные.флора.фауна.видовой.BDRemux].[1080p].[AVO.(Юрий.Сербин)].torrent без регистрации
Золото ЗОЛОТАЯ РАЗДАЧА! СКАЧАННОЕ НЕ ЗАСЧИТЫВАЕТСЯ! Золото
Дата: Зарегистрирован   [ Тип: внутренний ] Как тут cкачать?
MAGNET ссылка
MAGNET ссылка


Скачать .torrent

187 KB

Статус: проверено DHT
Скачан: торрент - 29 раз, раздача полностью - 0 раз
Размер: 74,23 GB
Оценка:  - (Голосов: 0)
Поблагодарили: 1
Поделиться ссылкой на эту раздачу с друзьями:
В контактеFacebookОдноклассникиTwitterLivejournalМой МирLiveinternet
 

 
Показать сообщения:    


Вы не можете начинать темы
Вы не можете отвечать на сообщения
Вы не можете редактировать свои сообщения
Вы не можете удалять свои сообщения
Вы не можете голосовать в опросах
Вы не можете прикреплять файлы к сообщениям
Вы можете скачивать файлы