Loading...
Error

Скачать Пиноккио / Pinocchio (Роберто Бениньи) [2002, сказка, комедия, BDRip] [720p] [MVO (R5)]+[Ita.]+[Sub Rus, Ita.] торрент без регистрации

Статистика раздачи
Размер:  4,89 GB   |    Скачан:  15 раз
Сидов:  1  [  0 KB/s  ]  
 
 
 
Автор Сообщение

Marsianka

[] 

Информация о фильме
Название: Пиноккио
Оригинальное название: Pinocchio
Год выхода: 2002
Жанр: сказка, комедия
Режиссер: Роберто Бениньи / Roberto Benigni
В ролях: Роберто Бениньи, Николетта Браски, Карло Джуффре, Ким Росси Стюарт, Пеппе Барра, Мино Беллеи, Макс Каваллари, Бруно Арена, Луис Мольтени, Alessandro Bergonzoni

О фильме:
Гениальный итальянский режиссер и актер Роберто Бениньи после триумфального успеха фильма «Жизнь прекрасна» решил взяться за экранизацию знаменитой сказки Карло Коллоди о приключениях деревянной куклы по имени Пиноккио, пригласив на роль феи с голубыми волосами (аналог Мальвины в сказке Алексея Толстого «Золотой ключик`) свою жену Николетту Браски, а на главную — естественно, себя.

Фильм получился сказочный, волшебный, как и надобно быть настоящей сказке, а Бениньи, обладая потрясающим комическим талантом и несмотря на свой пятидесяти двухлетний (!) возраст, блестяще изображает непоседливого, веселого, забавного, попадающего в различные неурядицы, мальчика.


Страна: Италия
Студия: Melampo Cinematografica, Cecchi Gori Group Fin.Ma.Vi.
Продолжительность: 01:50:21.209
Перевод: Профессиональный (многоголосый, закадровый) R5

Файл
Кодек: h.264
Качество: BDRip 720p
Видео: 1280x544 (2.35:1), 24.000 fps, AVC, ~5132 Kbps, 0.307 bits/pixel

Русский, 48.0 KHz, AC3, 6 ch, 448 Kbps
Итальянский, 48.0 KHz, AC3, 6 ch, 640 Kbps
Субтитры:
Итальянские, PGS
Русские, SRT(UTF-8) на основе R5
General
Unique ID : 266440168274965080469694863408567847417 (0xC8728285527162E43AB14A081C4E89F9)
Complete name : D:FILMSPinokkio.2002.BDRip720p.mkv
Format : Matroska
Format version : Version 4 / Version 2
File size : 4.89 GiB
Duration : 1 h 50 min
Overall bit rate : 6 346 kb/s
Encoded date : UTC 2018-01-05 09:38:14
Writing application : mkvmerge v19.0.0 ('Brave Captain') 64-bit
Writing library : libebml v1.3.5 + libmatroska v1.4.8

Video
ID : 1
Format : AVC
Format/Info : Advanced Video Codec
Format profile : High@L4.1
Format settings : CABAC / 9 Ref Frames
Format settings, CABAC : Yes
Format settings, RefFrames : 9 frames
Codec ID : V_MPEG4/ISO/AVC
Duration : 1 h 50 min
Bit rate : 5 243 kb/s
Width : 1 280 pixels
Height : 544 pixels
Display aspect ratio : 2.35:1
Frame rate mode : Constant
Frame rate : 24.000 FPS
Color space : YUV
Chroma subsampling : 4:2:0
Bit depth : 8 bits
Scan type : Progressive
Bits/(Pixel*Frame) : 0.314
Stream size : 4.04 GiB (83%)
Writing library : x264 core 152 r2851 ba24899
Encoding settings : cabac=1 / ref=9 / deblock=1:-3:-3 / analyse=0x3:0x133 / me=umh / subme=11 / psy=1 / psy_rd=1.10:0.15 / mixed_ref=1 / me_range=48 / chroma_me=1 / trellis=2 / 8x8dct=1 / cqm=0 / deadzone=21,11 / fast_pskip=0 / chroma_qp_offset=-3 / threads=8 / lookahead_threads=2 / sliced_threads=0 / nr=0 / decimate=0 / interlaced=0 / bluray_compat=0 / constrained_intra=0 / bframes=10 / b_pyramid=2 / b_adapt=2 / b_bias=0 / direct=3 / weightb=1 / open_gop=0 / weightp=2 / keyint=240 / keyint_min=24 / scenecut=40 / intra_refresh=0 / rc_lookahead=60 / rc=crf / mbtree=0 / crf=18.0 / qcomp=0.60 / qpmin=0 / qpmax=69 / qpstep=4 / vbv_maxrate=40000 / vbv_bufsize=50000 / crf_max=0.0 / nal_hrd=none / filler=0 / ip_ratio=1.40 / pb_ratio=1.30 / aq=1:1.00
Default : No
Forced : No
Color range : Limited
Color primaries : BT.709
Transfer characteristics : BT.709
Matrix coefficients : BT.709

Audio #1
ID : 2
Format : AC-3
Format/Info : Audio Coding 3
Codec ID : A_AC3
Duration : 1 h 50 min
Bit rate mode : Constant
Bit rate : 448 kb/s
Channel(s) : 6 channels
Channel positions : Front: L C R, Side: L R, LFE
Sampling rate : 48.0 kHz
Frame rate : 31.250 FPS (1536 SPF)
Bit depth : 16 bits
Compression mode : Lossy
Stream size : 354 MiB (7%)
Language : Russian
Service kind : Complete Main
Default : Yes
Forced : No

Audio #2
ID : 3
Format : AC-3
Format/Info : Audio Coding 3
Codec ID : A_AC3
Duration : 1 h 50 min
Bit rate mode : Constant
Bit rate : 640 kb/s
Channel(s) : 6 channels
Channel positions : Front: L C R, Side: L R, LFE
Sampling rate : 48.0 kHz
Frame rate : 31.250 FPS (1536 SPF)
Bit depth : 16 bits
Compression mode : Lossy
Stream size : 505 MiB (10%)
Language : Italian
Service kind : Complete Main
Default : No
Forced : No

Text #1
ID : 4
Format : PGS
Muxing mode : zlib
Codec ID : S_HDMV/PGS
Codec ID/Info : Picture based subtitle format used on BDs/HD-DVDs
Duration : 1 h 44 min
Bit rate : 44.1 kb/s
Count of elements : 2940
Stream size : 32.8 MiB (1%)
Language : Italian
Default : No
Forced : No

Text #2
ID : 5
Format : UTF-8
Codec ID : S_TEXT/UTF8
Codec ID/Info : UTF-8 Plain Text
Duration : 1 h 44 min
Bit rate : 119 b/s
Count of elements : 1401
Stream size : 91.7 KiB (0%)
Language : Russian
Default : No
Forced : No

Menu
00:00:00.000 : en:00:00:00.000
00:06:43.625 : en:00:06:43.625
00:15:32.750 : en:00:15:32.750
00:22:13.917 : en:00:22:13.917
00:28:42.792 : en:00:28:42.792
00:36:58.583 : en:00:36:58.583
00:46:48.042 : en:00:46:48.042
00:52:12.917 : en:00:52:12.917
00:57:41.833 : en:00:57:41.833
01:05:03.833 : en:01:05:03.833
01:11:46.250 : en:01:11:46.250
01:18:04.083 : en:01:18:04.083
01:27:55.083 : en:01:27:55.083
01:33:23.083 : en:01:33:23.083
01:39:58.667 : en:01:39:58.667
01:43:42.792 : en:01:43:42.792
Релиз от: Temperest



Скачать Пиноккио.Pinocchio.(Роберто.Бениньи).[2002.сказка.комедия.BDRip].[720p].[MVO.(R5)]+[Ita.]+[Sub.Rus.Ita.].torrent без регистрации
Золото ЗОЛОТАЯ РАЗДАЧА! СКАЧАННОЕ НЕ ЗАСЧИТЫВАЕТСЯ! Золото
Дата: Зарегистрирован   [ Тип: внутренний ] Как тут cкачать?
MAGNET ссылка
MAGNET ссылка


Скачать .torrent

13 KB

Статус: проверено DHT
Скачан: торрент - 15 раз, раздача полностью - 3 раз
Размер: 4,89 GB
Оценка:  - (Голосов: 0)
Поблагодарили: 0
Поделиться ссылкой на эту раздачу с друзьями:
В контактеFacebookОдноклассникиTwitterLivejournalМой МирLiveinternet
 

 
Показать сообщения:    


Вы не можете начинать темы
Вы не можете отвечать на сообщения
Вы не можете редактировать свои сообщения
Вы не можете удалять свои сообщения
Вы не можете голосовать в опросах
Вы не можете прикреплять файлы к сообщениям
Вы можете скачивать файлы