Loading...
Error

Скачать Райское озеро / Eden Lake (Джеймс Уоткинс) [2008, ужасы, BDRip] [720p] [iPad] [Dub (Лицензия)] торрент без регистрации

Статистика раздачи
Размер:  2,26 GB   |    Скачан:  15 раз
Сидов:  1  [  0 KB/s  ]  
 
 
 
Автор Сообщение

Marsianka

[] 

Год выпуска: 2008
Оригинальное название: Eden Lake
Страна: Великобритания
Жанр: ужасы
Возраст: 18+

Режиссер: Джеймс Уоткинс

В ролях: Келли Райлли, Майкл Фассбендер, Джек О`Коннелл, Томас Тургус, Финн Аткинс, Джеймс Берроуз, Том Гилл, Джумэйн Хантер, Шон Дули, Тара Эллис

Описание: Молодая парочка едет за город, чтобы провести романтический уикенд на берегу Райского озера вдали от людей, в диком лесу. Стив и Дженни планируют пожениться, прожить долго и умереть в один день. Никто из них не думал, чем закончится эта поездка.



Продолжительность: 01:30:57
Перевод: Дублированный [Лицензия]
Оригинальная дорожка: нет

Релиз от:

Качество видео: BDRip 720p Исходник: Blu-Ray Remux (1080p) Формат: mp4
Видео кодек: MPEG-4 AVC Аудио кодек: AAC
Видео: 1280x544 (2.35:1) at 24.000 fps, AVC at 3 397 kbps avg, 0.203 bit/pixel
Аудио №1 Rus: 48.0 KHz, AAC, 2 ch, 160.0 Kbps
Субтитры: нет
Навигация по главам: есть
Размер: 2.26 GiB
avs [info]: 1280x544p 1:1 @ 24/1 fps (cfr)
x264 [info]: using SAR=1/1
x264 [info]: using cpu capabilities: MMX2 SSE2Fast SSSE3 Cache64
x264 [info]: profile High, level 4.1
x264 [info]: frame I:1097 Avg QP:15.95 size:125568
x264 [info]: frame P:27271 Avg QP:19.39 size: 36854
x264 [info]: frame B:102616 Avg QP:21.84 size: 11444
x264 [info]: consecutive B-frames: 1.9% 2.1% 9.0% 15.4% 12.0% 47.7% 4.7% 2.1% 5.1%
x264 [info]: mb I I16..4: 5.0% 79.1% 15.9%
x264 [info]: mb P I16..4: 1.2% 11.9% 1.4% P16..4: 43.5% 19.5% 16.4% 0.6% 0.2% skip: 5.4%
x264 [info]: mb B I16..4: 0.1% 1.2% 0.2% B16..8: 42.0% 9.3% 2.2% direct: 6.6% skip:38.3% L0:44.8% L1:44.7% BI:10.5%
x264 [info]: 8x8 transform intra:81.1% inter:68.6%
x264 [info]: coded y,uvDC,uvAC intra: 83.8% 85.3% 56.3% inter: 28.5% 27.9% 3.8%
x264 [info]: i16 v,h,dc,p: 22% 17% 6% 54%
x264 [info]: i8 v,h,dc,ddl,ddr,vr,hd,vl,hu: 14% 15% 18% 6% 10% 10% 10% 9% 9%
x264 [info]: i4 v,h,dc,ddl,ddr,vr,hd,vl,hu: 17% 17% 11% 7% 12% 11% 10% 7% 7%
x264 [info]: i8c dc,h,v,p: 53% 19% 17% 10%
x264 [info]: Weighted P-Frames: Y:5.2% UV:3.1%
x264 [info]: ref P L0: 45.8% 11.4% 16.9% 6.8% 5.9% 4.3% 4.0% 2.4% 2.5% 0.2% 0.0%
x264 [info]: ref B L0: 74.3% 10.9% 5.9% 3.2% 2.2% 1.9% 1.2% 0.4%
x264 [info]: ref B L1: 94.2% 5.8%
x264 [info]: kb/s:3396.56
encoded 130984 frames, 3.43 fps, 3396.56 kb/s
General
Complete name : ...Rajskoe-ozero-2008_KinoGadget.mp4
Format : MPEG-4
Format profile : Base Media
Codec ID : isom (isom)
File size : 2.26 GiB
Duration : 1 h 30 min
Overall bit rate mode : Variable
Overall bit rate : 3 564 kb/s
Movie name : Райское озеро | KinoGadget
Performer : Джеймс Уоткинс
Director : Джеймс Уоткинс
Actor : Келли Райлли / Майкл Фассбендер / Джек О`Коннелл / Томас Тургус / Финн Аткинс / Джеймс Берроуз / Том Гилл / Джумэйн Хантер / Шон Дули / Тара Эллис
Screenplay by : Джеймс Уоткинс
Producer : Кристиан Колсон / Ричард Холмс / Ивана МакКиннон
Genre : Adventure, Horror, Thriller
ContentType : Short Film
Recorded date : 2008
Encoded date : UTC 2018-01-20 08:22:42
Tagged date : UTC 2018-01-20 09:04:47
Cover : Yes
ContentRating : mpaa|R|400|
LongDeion : Молодая парочка едет за город, чтобы провести романтический уикенд на берегу Райского озера вдали от людей, в диком лесу. Стив и Дженни планируют пожениться, прожить долго и умереть в один день. Никто из них не думал, чем закончится эта поездка.
HDVideo : Yes

Video
ID : 1
Format : AVC
Format/Info : Advanced Video Codec
Format profile : High@L4.1
Format settings : CABAC / 9 Ref Frames
Format settings, CABAC : Yes
Format settings, ReFrames : 9 frames
Codec ID : avc1
Codec ID/Info : Advanced Video Coding
Duration : 1 h 30 min
Bit rate : 3 397 kb/s
Maximum bit rate : 18.6 Mb/s
Width : 1 280 pixels
Height : 544 pixels
Display aspect ratio : 2.35:1
Frame rate mode : Constant
Frame rate : 24.000 FPS
Color space : YUV
Chroma subsampling : 4:2:0
Bit depth : 8 bits
Scan type : Progressive
Bits/(Pixel*Frame) : 0.203
Stream size : 2.16 GiB (95%)
Writing library : x264 core 152 r2851 ba24899
Encoding settings : cabac=1 / ref=9 / deblock=1:-2:-1 / analyse=0x3:0x133 / me=umh / subme=7 / psy=1 / psy_rd=1.00:0.00 / mixed_ref=1 / me_range=32 / chroma_me=1 / trellis=2 / 8x8dct=1 / cqm=0 / deadzone=21,11 / fast_pskip=0 / chroma_qp_offset=-2 / threads=3 / lookahead_threads=1 / sliced_threads=0 / nr=0 / decimate=1 / interlaced=0 / bluray_compat=0 / constrained_intra=0 / bframes=8 / b_pyramid=2 / b_adapt=2 / b_bias=0 / direct=1 / weightb=1 / open_gop=0 / weightp=2 / keyint=250 / keyint_min=25 / scenecut=40 / intra_refresh=0 / rc_lookahead=60 / rc=crf / mbtree=1 / crf=19.0 / qcomp=0.60 / qpmin=0 / qpmax=69 / qpstep=4 / vbv_maxrate=62500 / vbv_bufsize=78125 / crf_max=0.0 / nal_hrd=none / filler=0 / ip_ratio=1.40 / aq=1:1.00
Encoded date : UTC 2018-01-20 06:10:54
Tagged date : UTC 2018-01-20 08:24:42

Audio
ID : 2
Format : AAC
Format/Info : Advanced Audio Codec
Format profile : LC
Codec ID : mp4a-40-2
Duration : 1 h 30 min
Bit rate mode : Variable
Bit rate : 160 kb/s
Maximum bit rate : 166 kb/s
Channel(s) : 2 channels
Channel positions : Front: L R
Sampling rate : 48.0 kHz
Frame rate : 46.875 FPS (1024 SPF)
Compression mode : Lossy
Stream size : 104 MiB (4%)
Language : Russian
Encoded date : UTC 2018-01-20 06:19:37
Tagged date : UTC 2018-01-20 08:24:42

Menu
Данный рип предназначен для просмотра на мобильных гаджетах с поддержкой формата mp4



Скачать Райское.озеро.Eden.Lake.(Джеймс.Уоткинс).[2008.ужасы.BDRip].[720p].[iPad].[Dub.(Лицензия)].torrent без регистрации
Золото ЗОЛОТАЯ РАЗДАЧА! СКАЧАННОЕ НЕ ЗАСЧИТЫВАЕТСЯ! Золото
Дата: Зарегистрирован   [ Тип: внутренний ] Как тут cкачать?
MAGNET ссылка
MAGNET ссылка


Скачать .torrent

12 KB

Статус: проверено DHT
Скачан: торрент - 15 раз, раздача полностью - 1 раз
Размер: 2,26 GB
Оценка:  - (Голосов: 0)
Поблагодарили: 1
Поделиться ссылкой на эту раздачу с друзьями:
В контактеFacebookОдноклассникиTwitterLivejournalМой МирLiveinternet
 

 
Показать сообщения:    


Вы не можете начинать темы
Вы не можете отвечать на сообщения
Вы не можете редактировать свои сообщения
Вы не можете удалять свои сообщения
Вы не можете голосовать в опросах
Вы не можете прикреплять файлы к сообщениям
Вы можете скачивать файлы