Loading...
Error

Скачать Времена года / Les Saisons (Жак Перрен, Жак Клюзо) [2015, документальный, природа, животные, флора, фауна, видовой, BDRip] [1080p] [AVO (Юрий Сербин)] торрент без регистрации

Статистика раздачи
Размер:  8,92 GB   |    Скачан:  22 раза
Сидов:  1  [  0 KB/s  ]  
 
 
 
Автор Сообщение

Marsianka

[] 

Информация о фильме
Название: Времена года
Оригинальное: Les Saisons
Год выхода: 2015
Жанр: документальный, природа, животные, флора, фауна, видовой
Режиссёры: Жак Перрен, Жак Клюзо

О фильме:
Тысячу лет назад Европа была покрыта бесконечными лесами, где безраздельно правили зубры, лисы, волки, лоси и олени. Их королевством была первобытная непролазная чаща, которая простиралась через весь континент. Сердце её находилось в Беловежской пуще — теперь, пожалуй, единственном сохранившемся её фрагменте. В этом таинственном лесу разворачивается невероятная история самой дикой и ещё нетронутой рукой человека природы. Фильм «Времена года» продолжает популярный природоведческий цикл режиссёров Жака Перрена и Жака Клюзо, начатый документальными блокбастерами «Птицы» и «Океаны». На этот раз авторы приглашают в необычный мир реликтовой пущи, чтобы глазами её обитателей показать нам историю природы, нашего континента и человека от ледникового периода до настоящего времени.



Страна: Франция, Германия
Студия: France 2 Cineeema, Galatee Films, Pandora Filmproduktion GmbH, Pathe
Продолжительность: 01:36:02
Перевод: Авторский (Юрий Сербин)

Файл
Кодек: MPEG-4 AVC
Качество: BDRip 1080p
Видео: 1918х800, 11,8 Мбит/с, 24 кадра/с
Звук: DTS, 6 каналов, 1509 Кбит/с
Общее
Уникальный идентификатор : 16833295260183911539174197943354156126 (0xCA9F98896BCE7C2E67500B36826645E)
Полное имя : C:ВРЕМЕНА ГОДА.mkv
Формат : Matroska
Версия формата : Version 4 / Version 2
Размер файла : 8,92 Гбайт
Продолжительность : 1 ч. 36 м.
Общий поток : 13,3 Мбит/сек
Название фильма : Les saisons (2015) from ExKinoRay
Дата кодирования : UTC 2018-01-21 01:35:17
Программа кодирования : mkvmerge v20.0.0 ('I Am The Sun') 64-bit
Библиотека кодирования : libebml v1.3.5 + libmatroska v1.4.8

Видео
Идентификатор : 1
Формат : AVC
Формат/Информация : Advanced Video Codec
Профиль формата : High@L4.1
Настройки формата : CABAC / 5 Ref Frames
Параметр CABAC формата : Да
Параметр RefFrames формата : 5 кадров
Идентификатор кодека : V_MPEG4/ISO/AVC
Продолжительность : 1 ч. 36 м.
Битрейт : 11,8 Мбит/сек
Ширина : 1918 пикселей
Высота : 800 пикселей
Соотношение сторон : 2,40:1
Режим частоты кадров : Постоянный
Частота кадров : 24,000 кадра/сек
Цветовое пространство : YUV
Субдискретизация насыщенности : 4:2:0
Битовая глубина : 8 бит
Тип развёртки : Прогрессивная
Бит/(Пиксели*Кадры) : 0.320
Размер потока : 7,91 Гбайт (89%)
Библиотека кодирования : x264 core 148 r2638 7599210
Настройки программы : cabac=1 / ref=5 / deblock=1:-2:-3 / analyse=0x3:0x133 / me=umh / subme=11 / psy=1 / psy_rd=1.05:0.12 / mixed_ref=1 / me_range=32 / chroma_me=1 / trellis=2 / 8x8dct=1 / cqm=0 / deadzone=21,11 / fast_pskip=0 / chroma_qp_offset=-3 / threads=12 / lookahead_threads=3 / sliced_threads=0 / nr=0 / decimate=1 / interlaced=0 / bluray_compat=0 / constrained_intra=0 / bframes=10 / b_pyramid=2 / b_adapt=2 / b_bias=0 / direct=3 / weightb=1 / open_gop=0 / weightp=2 / keyint=240 / keyint_min=23 / scenecut=40 / intra_refresh=0 / rc_lookahead=40 / rc=2pass / mbtree=0 / bitrate=11799 / ratetol=1.0 / qcomp=0.60 / qpmin=0 / qpmax=51 / qpstep=4 / cplxblur=20.0 / qblur=0.5 / vbv_maxrate=50000 / vbv_bufsize=62500 / nal_hrd=none / filler=0 / ip_ratio=1.40 / pb_ratio=1.30 / aq=1:0.90
Default : Да
Forced : Нет
Цветовой диапазон : Limited
Основные цвета : BT.709
Характеристики трансфера : BT.709
Коэффициенты матрицы : BT.709

Аудио
Идентификатор : 2
Формат : DTS
Формат/Информация : Digital Theater Systems
Идентификатор кодека : A_DTS
Продолжительность : 1 ч. 36 м.
Вид битрейта : Постоянный
Битрейт : 1509 Кбит/сек
Каналы : 6 каналов
Расположение каналов : Front: L C R, Side: L R, LFE
Частота : 48,0 КГц
Частота кадров : 93,750 кадра/сек (512 SPF)
Битовая глубина : 24 бит
Метод сжатия : С потерями
Размер потока : 1,01 Гбайт (11%)
Заголовок : Юрий Сербин
Язык : Russian
Default : Нет
Forced : Нет



Скачать Времена.года.Les.Saisons.(Жак.Перрен.Жак.Клюзо).[2015.документальный.природа.животные.флора.фауна.видовой.BDRip].[1080p].[AVO.(Юрий.Сербин)].torrent без регистрации
Золото ЗОЛОТАЯ РАЗДАЧА! СКАЧАННОЕ НЕ ЗАСЧИТЫВАЕТСЯ! Золото
Дата: Зарегистрирован   [ Тип: внутренний ] Как тут cкачать?
MAGNET ссылка
MAGNET ссылка


Скачать .torrent

23 KB

Статус: проверено DHT
Скачан: торрент - 22 раз, раздача полностью - 1 раз
Размер: 8,92 GB
Оценка:  - (Голосов: 0)
Поблагодарили: 0
Поделиться ссылкой на эту раздачу с друзьями:
В контактеFacebookОдноклассникиTwitterLivejournalМой МирLiveinternet
 

 
Показать сообщения:    


Вы не можете начинать темы
Вы не можете отвечать на сообщения
Вы не можете редактировать свои сообщения
Вы не можете удалять свои сообщения
Вы не можете голосовать в опросах
Вы не можете прикреплять файлы к сообщениям
Вы можете скачивать файлы