Loading...
Error

Скачать Дом из песка и тумана / House of Sand and Fog (Вадим Перельман) [2003, драма, экранизация, WEB-DLRip] [720p] [Dub]+[MVO]+[DVO]+[AVO]x2+[Оригинал Eng]+[Sub Rus, Eng]x2 торрент без регистрации

Статистика раздачи
Размер:  6,82 GB   |    Скачан:  12 раз
Сидов:  8  [  0 KB/s  ]  
 
 
 
Автор Сообщение

Marsianka

[] 

Название: Дом из песка и тумана
Оригинальное название: House of Sand and Fog
Год выпуска: 2003
Выпущено: США, Bisgrove Entertainment, Cobalt Media Group, DreamWorks SKG
Жанр: драма, экранизация
Режиссер: Вадим Перельман
В ролях: Дженнифер Коннелли, Бен Кингсли, Рон Элдард, Фрэнсис Фишер, Ким Диккенс, Шохре Агдашлу, Джонатан Ахдут, Нави Рават, Карлос Гомес, Киа Джэм, Бонита Фридериси

О фильме: Фильм снят по мотивам романа Андре Дюбюса III «Дом из песка и тумана» (House of Sand and Fog, 1999).
Захватывающая история американской мечты, обреченной на крах, рассказывает о двух людях, готовых на всё, лишь бы доказать свое право на владение домом. Речь идет всего-навсего о небольшом бунгало в Северной Калифорнии, но для Кэти Николо это последняя надежда на возвращение к жизни. В результате бюрократической ошибки ее выселяют, и Кэти оказывается на улице. Ей остается лишь беспомощно наблюдать, как дом продают на аукционе за мизерную цену.



Продолжительность: 02:06:10
Перевод: Дублированный, профессиональный многоголосый, профессиональный двухголосый, авторский
Субтитры: Русские, английские
Навигация по главам: Есть

Релиз от:

Файл
Качество: WEB-DLRip 720p
Видео: MPEG-4 AVC, 4992 Кбит/сек, 1280x720, 23,976 кадра/сек
Аудио #1: AC3, 6 ch, 448 Кбит/сек | Русский, профессиональный (полное дублирование) R5
Аудио #2: AC3, 6 ch, 384 Кбит/сек | Русский, профессиональный (многоголосый закадровый)
Аудио #3: AC3, 2 ch, 192 Кбит/сек | Русский, профессиональный (двухголосый закадровый) Tycoon-Studio
Аудио #4: AC3, 6 ch, 640 Кбит/сек | Русский, авторский (одноголосый закадровый) Ю. Сербин
Аудио #5: AC3, 6 ch, 448 Кбит/сек | Русский, авторский (одноголосый закадровый) Е. Рудой
Аудио #6: EAC3, 6 ch, 640 Кбит/сек | Английский, оригинал
x264 [info]: frame I:1186 Avg QP:15.39 size: 165147
x264 [info]: frame P:36731 Avg QP:18.95 size: 57801
x264 [info]: frame B:143573 Avg QP:20.10 size: 16745
----------------------------------------------------
Общее
Уникальный идентификатор : 171886675065531257856452625907958182546 (0x81502B6166E95FCDA609AE884BFC7292)
Полное имя : Дом.из.песка.и.тумана.2003.WEB-DLRip.720p.KORSAR.mkv
Формат : Matroska
Размер файла : 6,82 Гбайт
Продолжительность : 2 ч. 6 м.
Общий поток : 7739 Кбит/сек
Дата кодирования : UTC 2017-10-04 09:25:01
Программа кодирования : mkvmerge v5.8.0 ('No Sleep / Pillow') built on Sep 2 2012 15:37:04
Библиотека кодирования : libebml v1.2.3 + libmatroska v1.3.0

Видео
Идентификатор : 1
Формат : AVC
Формат/Информация : Advanced Video Codec
Профиль формата : High@L4.1
Параметр CABAC формата : Да
Параметр ReFrames формата : 9 кадров
Идентификатор кодека : V_MPEG4/ISO/AVC
Продолжительность : 2 ч. 6 м.
Битрейт : 4992 Кбит/сек
Ширина : 1280 пикс.
Высота : 720 пикс.
Соотношение сторон : 16:9
Частота кадров : 23,976 кадр/сек
Цветовое пространство : YUV
Подвыборка цветности : 4:2:0
Битовая глубина : 8 бит
Тип развёртки : Прогрессивная
Бит/(Пиксели*Кадры) : 0.226
Размер потока : 4,26 Гбайт (62%)
Заголовок : RIP | MZMA
Библиотека кодирования : x264 core 148 r2638 7599210
Настройки программы : cabac=1 / ref=9 / deblock=1:-3:-3 / analyse=0x3:0x113 / me=umh / subme=11 / psy=1 / psy_rd=1.00:0.00 / mixed_ref=1 / me_range=64 / chroma_me=1 / trellis=2 / 8x8dct=1 / cqm=0 / deadzone=21,11 / fast_pskip=0 / chroma_qp_offset=-2 / threads=6 / lookahead_threads=1 / sliced_threads=0 / nr=0 / decimate=0 / interlaced=0 / bluray_compat=0 / constrained_intra=0 / bframes=16 / b_pyramid=2 / b_adapt=2 / b_bias=0 / direct=3 / weightb=1 / open_gop=0 / weightp=2 / keyint=240 / keyint_min=23 / scenecut=40 / intra_refresh=0 / rc_lookahead=60 / rc=2pass / mbtree=1 / bitrate=4992 / ratetol=1.0 / qcomp=0.60 / qpmin=0 / qpmax=69 / qpstep=4 / cplxblur=20.0 / qblur=0.5 / vbv_maxrate=50000 / vbv_bufsize=62500 / nal_hrd=none / filler=0 / ip_ratio=1.40 / aq=3:1.00
Язык : English
Основные цвета : BT.709
Характеристики трансфера : BT.709
Коэффициенты матрицы : BT.709

Аудио #1
Идентификатор : 2
Формат : AC-3
Формат/Информация : Audio Coding 3
Расширение режима : CM (complete main)
Идентификатор кодека : A_AC3
Продолжительность : 2 ч. 6 м.
Вид битрейта : Постоянный
Битрейт : 448 Кбит/сек
Каналы : 6 каналов
Расположение каналов : Front: L C R, Side: L R, LFE
Частота : 48,0 КГц
Битовая глубина : 16 бит
Метод сжатия : С потерями
Размер потока : 404 Мбайт (6%)
Заголовок : DUB | R5
Язык : Russian

Аудио #2
Идентификатор : 3
Формат : AC-3
Формат/Информация : Audio Coding 3
Расширение режима : CM (complete main)
Идентификатор кодека : A_AC3
Продолжительность : 2 ч. 6 м.
Вид битрейта : Постоянный
Битрейт : 384 Кбит/сек
Каналы : 6 каналов
Расположение каналов : Front: L C R, Side: L R, LFE
Частота : 48,0 КГц
Битовая глубина : 16 бит
Метод сжатия : С потерями
Размер потока : 347 Мбайт (5%)
Заголовок : MVO | DVD5
Язык : Russian

Аудио #3
Идентификатор : 4
Формат : AC-3
Формат/Информация : Audio Coding 3
Расширение режима : CM (complete main)
Идентификатор кодека : A_AC3
Продолжительность : 2 ч. 6 м.
Вид битрейта : Постоянный
Битрейт : 192 Кбит/сек
Каналы : 2 канала
Расположение каналов : Front: L R
Частота : 48,0 КГц
Битовая глубина : 16 бит
Метод сжатия : С потерями
Размер потока : 173 Мбайт (2%)
Заголовок : DVO | Tycoon
Язык : Russian

Аудио #4
Идентификатор : 5
Формат : AC-3
Формат/Информация : Audio Coding 3
Расширение режима : CM (complete main)
Идентификатор кодека : A_AC3
Продолжительность : 2 ч. 6 м.
Вид битрейта : Постоянный
Битрейт : 640 Кбит/сек
Каналы : 6 каналов
Расположение каналов : Front: L C R, Side: L R, LFE
Частота : 48,0 КГц
Битовая глубина : 16 бит
Метод сжатия : С потерями
Размер потока : 578 Мбайт (8%)
Заголовок : AVO | Ю. Сербин
Язык : Russian

Аудио #5
Идентификатор : 6
Формат : AC-3
Формат/Информация : Audio Coding 3
Расширение режима : CM (complete main)
Идентификатор кодека : A_AC3
Продолжительность : 2 ч. 6 м.
Вид битрейта : Постоянный
Битрейт : 448 Кбит/сек
Каналы : 6 каналов
Расположение каналов : Front: L C R, Side: L R, LFE
Частота : 48,0 КГц
Битовая глубина : 16 бит
Метод сжатия : С потерями
Размер потока : 404 Мбайт (6%)
Заголовок : AVO | Е. Рудой
Язык : Russian

Аудио #6
Идентификатор : 7
Формат : E-AC-3
Формат/Информация : Audio Coding 3
Идентификатор кодека : A_EAC3
Продолжительность : 2 ч. 6 м.
Вид битрейта : Постоянный
Битрейт : 640 Кбит/сек
Каналы : 6 каналов
Расположение каналов : Front: L C R, Side: L R, LFE
Частота : 48,0 КГц
Метод сжатия : С потерями
Размер потока : 578 Мбайт (8%)
Заголовок : Original
Язык : English

Текст #1
Идентификатор : 8
Формат : UTF-8
Идентификатор кодека : S_TEXT/UTF8
Идентификатор кодека/Информация : UTF-8 Plain Text
Язык : Russian

Текст #2
Идентификатор : 9
Формат : UTF-8
Идентификатор кодека : S_TEXT/UTF8
Идентификатор кодека/Информация : UTF-8 Plain Text
Язык : English

Текст #3
Идентификатор : 10
Формат : UTF-8
Идентификатор кодека : S_TEXT/UTF8
Идентификатор кодека/Информация : UTF-8 Plain Text
Заголовок : SDH
Язык : English

Меню
00:00:00.000 : en:Chapter 1
00:04:59.325 : en:Chapter 2
00:11:55.741 : en:Chapter 3
00:16:49.618 : en:Chapter 4
00:21:38.615 : en:Chapter 5
00:26:11.346 : en:Chapter 6
00:31:18.778 : en:Chapter 7
00:37:27.480 : en:Chapter 8
00:42:02.921 : en:Chapter 9
00:47:35.837 : en:Chapter 10
00:51:50.675 : en:Chapter 11
00:57:21.422 : en:Chapter 12
01:03:26.871 : en:Chapter 13
01:08:53.280 : en:Chapter 14
01:13:23.300 : en:Chapter 15
01:18:32.901 : en:Chapter 16
01:24:16.119 : en:Chapter 17
01:30:25.905 : en:Chapter 18
01:34:13.632 : en:Chapter 19
01:41:33.906 : en:Chapter 20
01:45:07.536 : en:Chapter 21
01:49:50.026 : en:Chapter 22
01:55:00.169 : en:Chapter 23
02:02:37.251 : en:Chapter 24
02:06:08.170 : en:Chapter 25



Скачать Дом.из.песка.и.тумана.House.of.Sand.and.Fog.(Вадим.Перельман).[2003.драма.экранизация.WEB-DLRip].[720p].[Dub]+[MVO]+[DVO]+[AVO]x2+[Оригинал.Eng]+[Sub.Rus.Eng]x2.torrent без регистрации
Золото ЗОЛОТАЯ РАЗДАЧА! СКАЧАННОЕ НЕ ЗАСЧИТЫВАЕТСЯ! Золото
Дата: Зарегистрирован   [ Тип: внешний ] Как тут cкачать?
MAGNET ссылка
MAGNET ссылка


Скачать .torrent

35 KB

Статус: проверено DHT
Скачан: торрент - 12 раз, раздача полностью - 0 раз
Размер: 6,82 GB
Оценка:  - (Голосов: 0)
Поблагодарили: 0
Поделиться ссылкой на эту раздачу с друзьями:
В контактеFacebookОдноклассникиTwitterLivejournalМой МирLiveinternet
 

 
Показать сообщения:    


Вы не можете начинать темы
Вы не можете отвечать на сообщения
Вы не можете редактировать свои сообщения
Вы не можете удалять свои сообщения
Вы не можете голосовать в опросах
Вы не можете прикреплять файлы к сообщениям
Вы можете скачивать файлы