Loading...
Error

Скачать Иди и смотри (Элем Климов) [1985, драма, военный, BDRip] [720p] [Sub Rus, Eng]x2 торрент без регистрации

Статистика раздачи
Размер:  10,73 GB   |    Скачан:  24 раза
Сидов:  1  [  0 KB/s  ]  
 
 
 
Автор Сообщение

Marsianka

[] 

Иди и смотри


Год выхода: 1985
Жанр: драма, военный

Режиссер: Элем Климов
В ролях: Алексей Кравченко, Ольга Миронова, Любомирас Лауцявичюс, Владас Багдонас, Юри Лумисте, Виктор Лоренц, Казимир Рабецкий, Евгений
Тиличеев, Александр Берда, Г. Вельц

О фильме: Картина основана на документальных фактах и обращается к «Хатынской повести» Адамовича. Авторами выбрано именно то место и те события, которые стали символом народной беды и страдания.
Флера — шестнадцатилетний мальчишка, откопавший среди обрывков колючей проволоки, ржавых пулеметных лент и простреленных касок карабин, и отправившийся в лес к партизанам. В начале фильма он совсем ребенок. В конце, пройдя через ужас карательной акции фашистов, становится взрослым, пугающе взрослым и даже — старым. Война исказила когда-то нежные, детские черты и превратила их в старческие морщины.

Страна: СССР
Студия: Киностудия им. М. Горького
Продолжительность: 2:22:56



Кодек: х264
Качество: BDRip 720p
Видео: MPEG-4 AVC, 9733 Кбит/с, 964x720
Звук: AC3, 6 ch, 448 Кбит/с, AC3, 2 ch, 384 Кбит/с
Субтитры: Русские, английские
Навигация по главам: Есть

x264 [info]: frame I:1011 Avg QP:17.98 size:159192
x264 [info]: frame P:40158 Avg QP:19.61 size: 97765
x264 [info]: frame B:163792 Avg QP:21.71 size: 39933
x264 [info]: consecutive B-frames: 1.0% 1.8% 4.8% 18.4% 15.5% 40.9% 7.2% 1.6% 2.5% 2.5% 1.5% 1.3% 0.9%

Общее
Уникальный идентификатор : 185233966062857548011112956265718709736 (0x8B5AC3A2561D3F20A097C940761D7DE8)
Полное имя : D:Иди и смотри_1985-BDRip 720p_KORSAR.mkv
Формат : Matroska
Версия формата : Version 2
Размер файла : 10,7 Гбайт
Продолжительность : 2 ч. 22 м.
Общий поток : 10,8 Мбит/сек
Название фильма : Иди и смотри_1985-BDRip 720p_KORSAR
Дата кодирования : UTC 2018-01-23 09:57:41
Программа кодирования : mkvmerge v5.8.0 ('No Sleep / Pillow') built on Sep 2 2012 15:37:04
Библиотека кодирования : libebml v1.2.3 + libmatroska v1.3.0

Видео
Идентификатор : 1
Формат : AVC
Формат/Информация : Advanced Video Codec
Профиль формата : High@L4.1
Параметр CABAC формата : Да
Параметр RefFrames формата : 11 кадров
Идентификатор кодека : V_MPEG4/ISO/AVC
Продолжительность : 2 ч. 22 м.
Битрейт : 9733 Кбит/сек
Ширина : 964 пикселя
Высота : 720 пикселей
Соотношение сторон : 4:3
Режим частоты кадров : Постоянный
Частота кадров : 23,976 (24000/1001) кадра/сек
Цветовое пространство : YUV
Субдискретизация насыщенности : 4:2:0
Битовая глубина : 8 бит
Тип развёртки : Прогрессивная
Бит/(Пиксели*Кадры) : 0.585
Размер потока : 9,69 Гбайт (90%)
Библиотека кодирования : x264 core 148 r2744kMod b97ae06
Настройки программы : cabac=1 / ref=11 / deblock=1:-2:-2 / analyse=0x3:0x113 / me=umh / subme=10 / psy=1 / fade_compensate=0.00 / psy_rd=1.05:0.00 / mixed_ref=1 / me_range=40 / chroma_me=1 / trellis=2 / 8x8dct=1 / cqm=0 / deadzone=21,11 / fast_pskip=1 / chroma_qp_offset=-2 / threads=12 / lookahead_threads=3 / sliced_threads=0 / nr=0 / decimate=1 / interlaced=0 / bluray_compat=0 / constrained_intra=0 / bframes=12 / b_pyramid=2 / b_adapt=2 / b_bias=0 / direct=1 / weightb=1 / open_gop=0 / weightp=2 / keyint=240 / keyint_min=23 / scenecut=40 / intra_refresh=0 / rc_lookahead=40 / rc=crf / mbtree=0 / crf=17.8000 / qcomp=0.63 / qpmin=0 / qpmax=39 / qpstep=4 / vbv_maxrate=50000 / vbv_bufsize=62500 / crf_max=0.0 / nal_hrd=none / filler=0 / ip_ratio=1.40 / pb_ratio=1.30 / aq=2:0.80
Язык : English
Default : Да
Forced : Нет
Цветовой диапазон : Limited
Основные цвета : BT.709
Характеристики трансфера : BT.709
Коэффициенты матрицы : BT.709

Аудио #1
Идентификатор : 2
Формат : AC-3
Формат/Информация : Audio Coding 3
Параметр Endianness формата : Big
Идентификатор кодека : A_AC3
Продолжительность : 2 ч. 22 м.
Вид битрейта : Постоянный
Битрейт : 448 Кбит/сек
Каналы : 6 каналов
Расположение каналов : Front: L C R, Side: L R, LFE
Частота : 48,0 КГц
Частота кадров : 31,250 кадров/сек (1536 SPF)
Битовая глубина : 16 бит
Метод сжатия : С потерями
Размер потока : 457 Мбайт (4%)
Заголовок : DVD
Язык : Russian
Default : Нет
Forced : Нет

Аудио #2
Идентификатор : 3
Формат : AC-3
Формат/Информация : Audio Coding 3
Параметр Endianness формата : Big
Идентификатор кодека : A_AC3
Продолжительность : 2 ч. 22 м.
Вид битрейта : Постоянный
Битрейт : 384 Кбит/сек
Каналы : 2 канала
Расположение каналов : Front: L R
Частота : 48,0 КГц
Частота кадров : 31,250 кадров/сек (1536 SPF)
Битовая глубина : 16 бит
Метод сжатия : С потерями
Размер потока : 391 Мбайт (4%)
Язык : Russian
Default : Да
Forced : Нет

Текст #1
Идентификатор : 4
Формат : UTF-8
Идентификатор кодека : S_TEXT/UTF8
Идентификатор кодека/Информация : UTF-8 Plain Text
Язык : Russian
Default : Нет
Forced : Нет

Текст #2
Идентификатор : 5
Формат : UTF-8
Идентификатор кодека : S_TEXT/UTF8
Идентификатор кодека/Информация : UTF-8 Plain Text
Язык : English
Default : Нет
Forced : Нет

Меню
00:00:00.000 : ru:Chapter 1
00:10:04.103 : ru:Chapter 2
00:20:01.074 : ru:Chapter 3
00:28:29.124 : ru:Chapter 4
00:39:50.596 : ru:Chapter 5
00:51:40.096 : ru:Chapter 6
01:01:47.995 : ru:Chapter 7
01:09:36.380 : ru:Chapter 8
01:18:59.735 : ru:Chapter 9
01:30:03.481 : ru:Chapter 10
01:40:52.671 : ru:Chapter 11
01:51:02.113 : ru:Chapter 12
01:58:43.825 : ru:Chapter 13
02:11:12.739 : ru:Chapter 14
02:22:54.524 : ru:Chapter 15



Скачать Иди.и.смотри.(Элем.Климов).[1985.драма.военный.BDRip].[720p].[Sub.Rus.Eng]x2.torrent без регистрации
Золото ЗОЛОТАЯ РАЗДАЧА! СКАЧАННОЕ НЕ ЗАСЧИТЫВАЕТСЯ! Золото
Дата: Зарегистрирован   [ Тип: внутренний ] Как тут cкачать?
MAGNET ссылка
MAGNET ссылка


Скачать .torrent

55 KB

Статус: проверено DHT
Скачан: торрент - 24 раз, раздача полностью - 0 раз
Размер: 10,73 GB
Оценка:  - (Голосов: 0)
Поблагодарили: 0
Поделиться ссылкой на эту раздачу с друзьями:
В контактеFacebookОдноклассникиTwitterLivejournalМой МирLiveinternet
 

 
Показать сообщения:    


Вы не можете начинать темы
Вы не можете отвечать на сообщения
Вы не можете редактировать свои сообщения
Вы не можете удалять свои сообщения
Вы не можете голосовать в опросах
Вы не можете прикреплять файлы к сообщениям
Вы можете скачивать файлы