Loading...
Error

Скачать Акулы: Властелины подводного мира / Sharks: Kings of the Ocean (Юрген Климмек) [2013, документальный, BDRip] [1080p] [VO] торрент без регистрации

Статистика раздачи
Размер:  4,76 GB   |    Скачан:  11 раз
Сидов:  1  [  0 KB/s  ]  
 
 
 
Автор Сообщение

Marsianka

[] 

Информация о фильме
Название: Акулы: Властелины подводного мира
Оригинальное: Sharks: Kings of the Ocean
Год выхода: 2013
Жанр: документальный
Режиссер: Юрген Климмек

О фильме:
Эти рыбы плавают в океанах планеты больше четырёхсот миллионов лет. И сейчас, они являются безусловными властителями морей - акулы. Поразительное чутьё и уникальные способности этих созданий сделали их непревзойдёнными охотниками и самыми опасными обитателями океана. Почти все люди думают об акулах одно и тоже: "Эти рыбы только и подстерегают пловцов и серферов у пляжных отмелей и всячески портят им жизнь" Правда это или миф? Действительно ли эти создания настолько ужасны как мы привыкли считать? Правда ли что акулы непредсказуемые монстры которые едят всё на своём пути? Веками акулы были скрыты завесой мистики и таинственности. Чтобы приподнять её мы решили познакомится с настоящими царями рыб: акулой молотом, скатом манта и бычьей акулой.

Страна: Германия
Студия: Los Banditos Films
Продолжительность: 00:51:13
Перевод: Профессиональный (одноголосый закадровый)

Файл
Кодек: MPEG-4 AVC
Качество: BDRip 1080p
Видео: 1920х1080, 11,5 Мбит/с, 24 кадра/с
Звук: DTS, 6 каналов, 1509 Кбит/с
Общее
Уникальный идентификатор : 303221658380651734467134409838946657134 (0xE41E5DFE9ABC663DC964E67345E7A36E)
Полное имя : C:UsersDVideosАКУЛЫ.mkv
Формат : Matroska
Версия формата : Version 4 / Version 2
Размер файла : 4,76 Гбайт
Продолжительность : 52 м. 22 с.
Общий поток : 13,0 Мбит/сек
Название фильма : BDRip -- STarankov
Дата кодирования : UTC 2018-01-24 14:58:19
Программа кодирования : mkvmerge v20.0.0 ('I Am The Sun') 64-bit
Библиотека кодирования : libebml v1.3.5 + libmatroska v1.4.8

Видео
Идентификатор : 1
Формат : AVC
Формат/Информация : Advanced Video Codec
Профиль формата : High@L4.1
Настройки формата : CABAC / 4 Ref Frames
Параметр CABAC формата : Да
Параметр RefFrames формата : 4 кадра
Идентификатор кодека : V_MPEG4/ISO/AVC
Продолжительность : 52 м. 22 с.
Битрейт : 11,5 Мбит/сек
Ширина : 1920 пикселей
Высота : 1080 пикселей
Соотношение сторон : 16:9
Режим частоты кадров : Постоянный
Частота кадров : 23,976 (24000/1001) кадра/сек
Цветовое пространство : YUV
Субдискретизация насыщенности : 4:2:0
Битовая глубина : 8 бит
Тип развёртки : Прогрессивная
Бит/(Пиксели*Кадры) : 0.232
Размер потока : 4,22 Гбайт (89%)
Библиотека кодирования : x264 core 146 r2538 121396c
Настройки программы : cabac=1 / ref=4 / deblock=1:-1:-1 / analyse=0x3:0x113 / me=umh / subme=10 / psy=1 / psy_rd=1.00:0.15 / mixed_ref=1 / me_range=32 / chroma_me=1 / trellis=2 / 8x8dct=1 / cqm=0 / deadzone=21,11 / fast_pskip=1 / chroma_qp_offset=-3 / threads=6 / lookahead_threads=1 / sliced_threads=0 / nr=0 / decimate=1 / interlaced=0 / bluray_compat=0 / constrained_intra=0 / bframes=8 / b_pyramid=2 / b_adapt=2 / b_bias=0 / direct=1 / weightb=1 / open_gop=0 / weightp=2 / keyint=230 / keyint_min=23 / scenecut=40 / intra_refresh=0 / rc_lookahead=40 / rc=crf / mbtree=0 / crf=18.0 / qcomp=0.60 / qpmin=0 / qpmax=69 / qpstep=4 / vbv_maxrate=40000 / vbv_bufsize=50000 / crf_max=0.0 / nal_hrd=none / filler=0 / ip_ratio=1.40 / pb_ratio=1.30 / aq=1:1.00
Default : Да
Forced : Нет

Аудио
Идентификатор : 2
Формат : DTS
Формат/Информация : Digital Theater Systems
Идентификатор кодека : A_DTS
Продолжительность : 51 м. 14 с.
Вид битрейта : Постоянный
Битрейт : 1509 Кбит/сек
Каналы : 6 каналов
Расположение каналов : Front: L C R, Side: L R, LFE
Частота : 48,0 КГц
Частота кадров : 93,750 кадра/сек (512 SPF)
Битовая глубина : 16 бит
Метод сжатия : С потерями
Размер потока : 553 Мбайт (11%)
Заголовок : профессиональный одноголосый
Язык : Russian
Default : Да
Forced : Нет



Скачать Акулы.Властелины.подводного.мира.Sharks.Kings.of.the.Ocean.(Юрген.Климмек).[2013.документальный.BDRip].[1080p].[VO].torrent без регистрации
Золото ЗОЛОТАЯ РАЗДАЧА! СКАЧАННОЕ НЕ ЗАСЧИТЫВАЕТСЯ! Золото
Дата: Зарегистрирован   [ Тип: внутренний ] Как тут cкачать?
MAGNET ссылка
MAGNET ссылка


Скачать .torrent

13 KB

Статус: проверено DHT
Скачан: торрент - 11 раз, раздача полностью - 0 раз
Размер: 4,76 GB
Оценка:  - (Голосов: 0)
Поблагодарили: 0
Поделиться ссылкой на эту раздачу с друзьями:
В контактеFacebookОдноклассникиTwitterLivejournalМой МирLiveinternet
 

 
Показать сообщения:    


Вы не можете начинать темы
Вы не можете отвечать на сообщения
Вы не можете редактировать свои сообщения
Вы не можете удалять свои сообщения
Вы не можете голосовать в опросах
Вы не можете прикреплять файлы к сообщениям
Вы можете скачивать файлы