Loading...
Error

Скачать National Geographic: Жизнь одного мёдоеда / Ultimate Honey Badger (Грэм Дуэйн) [2013, документальный, природа, животные, фауна, HDTVRip] [720p] [Dub]+[Eng] торрент без регистрации

Статистика раздачи
Размер:  1,58 GB   |    Скачан:  13 раз

Полного источника не было: 20 минут

 
 
 
Автор Сообщение

Marsianka

[] 

Информация о фильме
Название: Жизнь одного мёдоеда
Оригинальное: Ultimate Honey Badger
Год выхода: 2013
Жанр: документальный, природа, животные, фауна
Режиссер: Грэм Дуэйн

О фильме:
Животное с завидной репутацией - змеелов, гроза шакалов, известный хулиган мёдоед, или лысый барсук - легенда африканской саванны и интернета. Мёдоеду бояться нечего, кажется, что он просто берёт всё, что захочет, но на самом деле его жизнь намного интереснее. Прожив год с одним мёдоедом, мы убедимся насколько удивительно это существо и что оно действительно оправдывает свою репутацию самого бесстрашного зверя в мире животных.

Страна: США
Продолжительность: 00:43:45
Перевод: Дублированный

Файл
Кодек: MPEG-4 AVC
Качество: HDTVRip 720p
Видео: 1280x720, 4800 Кбит/с, 25 кадра/с
Аудио 1: Русский, MP2, 2 канала, 192 Кбит/с
Аудио 2: Английский, MP2, 2 канала, 192 Кбит/с
Общее
Уникальный идентификатор : 253607011858711659949448467705149405637 (0xBECAEF0F1FC8108395CB200A853E39C5)
Полное имя : C:UsersDDesktopUltimate Honey Badger HDTVRip-720p.2013.mkv
Формат : Matroska
Версия формата : Version 4 / Version 2
Размер файла : 1,58 Гбайт
Продолжительность : 43 м. 46 с.
Общий поток : 5181 Кбит/сек
Название фильма : HDTVRip by Vicman
Дата кодирования : UTC 2015-08-03 13:28:37
Программа кодирования : mkvmerge v8.1.0 ('Psychedelic Postcard') 64bit
Библиотека кодирования : libebml v1.3.1 + libmatroska v1.4.2

Видео
Идентификатор : 1
Формат : AVC
Формат/Информация : Advanced Video Codec
Профиль формата : High@L4.1
Настройки формата : CABAC / 7 Ref Frames
Параметр CABAC формата : Да
Параметр RefFrames формата : 7 кадров
Идентификатор кодека : V_MPEG4/ISO/AVC
Продолжительность : 43 м. 44 с.
Битрейт : 4800 Кбит/сек
Ширина : 1280 пикселей
Высота : 720 пикселей
Соотношение сторон : 16:9
Режим частоты кадров : Постоянный
Частота кадров : 25,000 кадров/сек
Цветовое пространство : YUV
Субдискретизация насыщенности : 4:2:0
Битовая глубина : 8 бит
Тип развёртки : Прогрессивная
Бит/(Пиксели*Кадры) : 0.208
Размер потока : 1,47 Гбайт (93%)
Библиотека кодирования : x264 core 146 r2538 121396c
Настройки программы : cabac=1 / ref=7 / deblock=1:0:0 / analyse=0x3:0x111 / me=umh / subme=9 / psy=1 / psy_rd=1.05:0.15 / mixed_ref=1 / me_range=32 / chroma_me=1 / trellis=2 / 8x8dct=1 / cqm=0 / deadzone=21,11 / fast_pskip=1 / chroma_qp_offset=-3 / threads=6 / lookahead_threads=1 / sliced_threads=0 / nr=0 / decimate=1 / interlaced=0 / bluray_compat=0 / constrained_intra=0 / bframes=9 / b_pyramid=2 / b_adapt=2 / b_bias=0 / direct=3 / weightb=1 / open_gop=0 / weightp=2 / keyint=250 / keyint_min=25 / scenecut=40 / intra_refresh=0 / rc_lookahead=60 / rc=2pass / mbtree=1 / bitrate=4800 / ratetol=1.0 / qcomp=0.60 / qpmin=0 / qpmax=69 / qpstep=4 / cplxblur=20.0 / qblur=0.5 / ip_ratio=1.40 / aq=2:1.00
Default : Да
Forced : Нет

Аудио #1
Идентификатор : 2
Формат : MPEG Audio
Версия формата : Version 1
Профиль формата : Layer 2
Идентификатор кодека : A_MPEG/L2
Идентификатор кодека/Подсказка : MP2
Продолжительность : 43 м. 44 с.
Вид битрейта : Постоянный
Битрейт : 192 Кбит/сек
Каналы : 2 канала
Частота : 48,0 КГц
Частота кадров : 41,667 кадра/сек (1152 SPF)
Метод сжатия : С потерями
Размер потока : 60,1 Мбайт (4%)
Заголовок : Студияс "Велес"
Язык : Russian
Default : Да
Forced : Нет

Аудио #2
Идентификатор : 3
Формат : MPEG Audio
Версия формата : Version 1
Профиль формата : Layer 2
Идентификатор кодека : A_MPEG/L2
Идентификатор кодека/Подсказка : MP2
Продолжительность : 43 м. 46 с.
Вид битрейта : Постоянный
Битрейт : 192 Кбит/сек
Каналы : 2 канала
Частота : 48,0 КГц
Частота кадров : 41,667 кадра/сек (1152 SPF)
Метод сжатия : С потерями
Размер потока : 60,1 Мбайт (4%)
Заголовок : Original
Язык : English
Default : Нет
Forced : Нет



Скачать National.Geographic.Жизнь.одного.мёдоеда.Ultimate.Honey.Badger.(Грэм.Дуэйн).[2013.документальный.природа.животные.фауна.HDTVRip].[720p].[Dub]+[Eng].torrent без регистрации
Золото ЗОЛОТАЯ РАЗДАЧА! СКАЧАННОЕ НЕ ЗАСЧИТЫВАЕТСЯ! Золото
Дата: Зарегистрирован   [ Тип: внутренний ] Как тут cкачать?
MAGNET ссылка
MAGNET ссылка


Скачать .torrent

17 KB

Статус: проверено DHT
Скачан: торрент - 13 раз, раздача полностью - 3 раз
Размер: 1,58 GB
Оценка:  - (Голосов: 0)
Поблагодарили: 0
Поделиться ссылкой на эту раздачу с друзьями:
В контактеFacebookОдноклассникиTwitterLivejournalМой МирLiveinternet
 

 
Показать сообщения:    


Вы не можете начинать темы
Вы не можете отвечать на сообщения
Вы не можете редактировать свои сообщения
Вы не можете удалять свои сообщения
Вы не можете голосовать в опросах
Вы не можете прикреплять файлы к сообщениям
Вы можете скачивать файлы