Loading...
Error

Скачать Ваш сын и брат (Василий Шукшин) [1966, драма, DVDRip-AVC] торрент без регистрации

Статистика раздачи
Размер:  1,34 GB   |    Скачан:  14 раз
Сидов:  1  [  0 KB/s  ]  
 
 
 
Автор Сообщение

Marsianka

[] 

Ваш сын и брат


Год выпуска: 1966
Жанр: драма
Продолжительность: 01:26:23
Перевод: Не требуется

Режиссер: Василий Шукшин
В ролях: Всеволод Санаев, А.Филиппова, Марта Грахова, Алексей Ванин, Леонид Куравлев, Леонид Реутов, Виктор Шахов, Николай Граббе, Александра Дорохина, Светлана Жгун, Вадим Захарченко, Юрий Саранцев, Олеся Иванова, Светлана Харитонова

Описание: Поставлен по рассказам В.Шукшина "Степка", "Игнаха приехал", "Змеиный яд".
Старый Ермолай всю жизнь прожил в одном селе. Имеет четверых сыновей. Старший уехал в Москву, другой работает на стройке и не поддается на уговоры старшего - переехать к нему. Младший со своим неуемным характером угодил в тюрьму и, чтобы повидать родных, за три месяца до освобождения совершает побег...



Кодек: х264
Качество: DVDRip-AVC
Видео: MPEG-4 AVC, 702х572@748x572, 25 fps, 2000 Кбит/с
Аудио: AC3, 2h, 224 Кбит/с

x264 [info]: frame I:581 Avg QP:16.63 size: 59091
x264 [info]: frame P:28481 Avg QP:19.42 size: 24376
x264 [info]: frame B:100529 Avg QP:21.40 size: 5642

Общее
Уникальный идентификатор : 207395001312661698454755408052747716405 (0x9C06D30794C37B80B4E8FFCEB5174735)
Полное имя : E:Мои рипыВаш сын и брат 1966_DVDRip-AVC_KORSAR.mkv
Формат : Matroska
Версия формата : Version 2
Размер файла : 1,34 Гбайт
Продолжительность : 1 ч. 26 м.
Общий поток : 2226 Кбит/сек
Дата кодирования : UTC 2018-01-24 12:10:10
Программа кодирования : mkvmerge v5.8.0 ('No Sleep / Pillow') built on Sep 2 2012 15:37:04
Библиотека кодирования : libebml v1.2.3 + libmatroska v1.3.0

Видео
Идентификатор : 1
Формат : AVC
Формат/Информация : Advanced Video Codec
Профиль формата : High@L4.1
Настройки формата : CABAC / 16 Ref Frames
Параметр CABAC формата : Да
Параметр RefFrames формата : 16 кадров
Идентификатор кодека : V_MPEG4/ISO/AVC
Продолжительность : 1 ч. 26 м.
Битрейт : 2000 Кбит/сек
Ширина : 702 пикселя
Высота : 572 пикселя
Соотношение сторон : 4:3
Соотношение сторон в оригинале : 4:3
Режим частоты кадров : Постоянный
Частота кадров : 25,000 кадров/сек
Цветовое пространство : YUV
Субдискретизация насыщенности : 4:2:0
Битовая глубина : 8 бит
Тип развёртки : Прогрессивная
Бит/(Пиксели*Кадры) : 0.199
Размер потока : 1,18 Гбайт (88%)
Библиотека кодирования : x264 core 152 r2851kMod ba24899
Настройки программы : cabac=1 / ref=16 / deblock=1:-2:-1 / analyse=0x3:0x133 / me=umh / subme=11 / psy=1 / fade_compensate=0.00 / psy_rd=1.05:0.10 / mixed_ref=1 / me_range=48 / chroma_me=1 / trellis=2 / 8x8dct=1 / cqm=0 / deadzone=21,11 / fast_pskip=0 / chroma_qp_offset=-3 / threads=12 / lookahead_threads=3 / sliced_threads=0 / nr=0 / decimate=0 / interlaced=0 / bluray_compat=0 / constrained_intra=0 / bframes=13 / b_pyramid=2 / b_adapt=2 / b_bias=0 / direct=3 / weightb=1 / open_gop=0 / weightp=2 / keyint=250 / keyint_min=25 / scenecut=40 / intra_refresh=0 / rc_lookahead=40 / rc=2pass / mbtree=0 / bitrate=2000 / ratetol=1.0 / qcomp=0.60 / qpmin=0 / qpmax=39 / qpstep=4 / cplxblur=20.0 / qblur=0.5 / vbv_maxrate=50000 / vbv_bufsize=62500 / nal_hrd=none / filler=0 / ip_ratio=1.25 / pb_ratio=1.30 / aq=1:0.90
Язык : English
Default : Да
Forced : Нет
Цветовой диапазон : Limited
Основные цвета : BT.601 PAL
Характеристики трансфера : BT.470 System B, BT.470 System G
Коэффициенты матрицы : BT.470 System B, BT.470 System G

Аудио
Идентификатор : 2
Формат : AC-3
Формат/Информация : Audio Coding 3
Параметр Endianness формата : Big
Идентификатор кодека : A_AC3
Продолжительность : 1 ч. 26 м.
Вид битрейта : Постоянный
Битрейт : 224 Кбит/сек
Каналы : 2 канала
Расположение каналов : Front: L R
Частота : 48,0 КГц
Частота кадров : 31,250 кадров/сек (1536 SPF)
Битовая глубина : 16 бит
Метод сжатия : С потерями
Размер потока : 138 Мбайт (10%)
Язык : Russian
Default : Да
Forced : Нет



Скачать Ваш.сын.и.брат.(Василий.Шукшин).[1966.драма.DVDRip-AVC].torrent без регистрации
Золото ЗОЛОТАЯ РАЗДАЧА! СКАЧАННОЕ НЕ ЗАСЧИТЫВАЕТСЯ! Золото
Дата: Зарегистрирован   [ Тип: внутренний ] Как тут cкачать?
MAGNET ссылка
MAGNET ссылка


Скачать .torrent

14 KB

Статус: проверено DHT
Скачан: торрент - 14 раз, раздача полностью - 9 раз
Размер: 1,34 GB
Оценка:  - (Голосов: 0)
Поблагодарили: 0
Поделиться ссылкой на эту раздачу с друзьями:
В контактеFacebookОдноклассникиTwitterLivejournalМой МирLiveinternet
 

 
Показать сообщения:    


Вы не можете начинать темы
Вы не можете отвечать на сообщения
Вы не можете редактировать свои сообщения
Вы не можете удалять свои сообщения
Вы не можете голосовать в опросах
Вы не можете прикреплять файлы к сообщениям
Вы можете скачивать файлы