Loading...
Error

Скачать Монстро / Cloverfield (Мэтт Ривз) [2008, ужасы, фантастика, триллер, детектив, UHD BDRemux] [2160p (4K HDR)] [Dub (Лицензия)]+2x[MVO]+2x[AVO]+[Eng]+[Sub Rus, Ukr, Eng] [Dolby Vision] торрент без регистрации

Статистика раздачи
Размер:  52,99 GB   |    Скачан:  15 раз
Сидов:  1  [  140 KB/s  ]  
 
 
 
Автор Сообщение

МихаНЕзатор

[] 

Информация о фильме
Название: Монстро
Оригинальное название: Cloverfield
Год выхода: 2008
Жанр: ужасы, фантастика, триллер, детектив
Режиссер: Мэтт Ривз

В ролях: Майкл Сталь-Дэвид, Одетт Эннэйбл, Майк Фогель, Джессика Лукас, ТиДжей Миллер, Лиззи Каплан, Анжул Нигам, Марго Фарли, Тео Росси, Брайан Клагман, Келвин Ю, Лиза Лапира, Лили Мирожник, Бен Фельдман, Елена Карузо, Вакиша Коулмэн, Уилл Гринберг, Роб Керкович, Райан Ки, Хооман Халили, Расика Матур, Барон Вон, Шарлин Йи, Рома Торре, Рик Овертон, Мартин Коэн, Джейсон Кербоун, Павел Личникофф, Билли Браун, Скотт Лоуренс, Джеффри Де Серрано, Тим Гриффин, Крис Малки, Суссе Будде, Джейсон Ломбард, Джэми Мартц, Дон Абернати, Кэйли Оукс-Биссон

О фильме: Прощальную вечеринку уезжающего в Японию Роба прерывает громогласный рык — нечто напало на Нью-Йорк, сея панику, разрушения и пожирая людей. Армия бессильна против гигантского монстра, Манхэттен объявлен закрытой зоной, но где-то неподалеку от Центрального парка в беду попала девушка Роба…



Страна: США
Студия: Bad Robot, Paramount Pictures
Продолжительность: 01:24:40
Перевод(ы):
#1: Дублированный | Лицензия | Blu-Ray CEE
#2: Профессиональный многоголосый | LostFilm
#3: Профессиональный многоголосый | Kinomania
#4: Авторский | Гаврилов
#5: Авторский | Немахов

Файл
Качество: BDRemux 2160p
Видео: MPEG-H HEVC HDR Video, 3840x2160, 72.6 Mbit/s, 23.976 fps (+ Dolby Vision Enhancement Layer)
Звук:
Аудио #01: 48 kHz, AC3, 5.1, 640 Kbps | Дублированный | RUS |
Аудио #02: 48 kHz, DTS, 5.1, 1510 Kbps | Профессиональный многоголосый | RUS |
Аудио #03: 48 kHz, AC3, 5.1, 448 Kbps | Профессиональный многоголосый | RUS |
Аудио #04: 48 kHz, AC3, 5.1, 448 Kbps | Авторский | RUS |
Аудио #05: 48 kHz, DTS, 5.1, 1510 Kbps | Авторский | RUS |
Аудио #06: 48 kHz, AC3, 5.1, 640 Kbps | Дублированный | UKR |
Аудио #07: 48 kHz, TrueHD, 5.1, 3463 Kbps | Оригинал | ENG |
Аудио #08: 48 kHz, AC3, 5.1, 640 Kbps | Оригинал | ENG |
Субтитры: Русские, украинские, английские

АНОНСЫ ПОПУЛЯРНЫХ РАЗДАЧ
General
Unique ID : 28829057290784963707211993462867170253 (0x15B04643B27DD5B2F629737045F313CD)
Complete name : G:VideoSSDCloverfield.2008.BDREMUX.2160p.4K.UltraHD.HEVC.HDR.Dolby.Vision.ExKinoRay.mkv
Format : Matroska
Format version : Version 4 / Version 2
File size : 53.0 GiB
Duration : 1 h 24 min
Overall bit rate mode : Variable
Overall bit rate : 89.6 Mb/s
Movie name : Cloverfield 2008 from ExKinoRay
Encoded date : UTC 2018-01-27 00:47:21
Writing application : mkvmerge v20.0.0 ('I Am The Sun') 64-bit
Writing library : libebml v1.3.5 + libmatroska v1.4.8

Video #1
ID : 1
Format : HEVC
Format/Info : High Efficiency Video Coding
Format profile : Main 10@L5.1@High
Codec ID : V_MPEGH/ISO/HEVC
Duration : 1 h 24 min
Bit rate : 72.6 Mb/s
Width : 3 840 pixels
Height : 2 160 pixels
Display aspect ratio : 16:9
Frame rate mode : Constant
Frame rate : 23.976 (24000/1001) FPS
Color space : YUV
Chroma subsampling : 4:2:0 (Type 2)
Bit depth : 10 bits
Bits/(Pixel*Frame) : 0.365
Stream size : 42.9 GiB (81%)
Language : English
Default : Yes
Forced : No
Color range : Limited
Color primaries : BT.2020
Transfer characteristics : PQ
Matrix coefficients : BT.2020 non-constant
Mastering display color pri : R: x=0.680000 y=0.320000, G: x=0.265000 y=0.690000, B: x=0.150000 y=0.060000, White point: x=0.312700 y=0.329000
Mastering display luminance : min: 0.0001 cd/m2, max: 1000.0000 cd/m2

Video #2
ID : 2
Format : HEVC
Format/Info : High Efficiency Video Coding
Format profile : Main 10@L5.1@High
Codec ID : V_MPEGH/ISO/HEVC
Duration : 1 h 24 min
Bit rate : 7 670 kb/s
Width : 1 920 pixels
Height : 1 080 pixels
Display aspect ratio : 16:9
Frame rate mode : Constant
Frame rate : 23.976 (24000/1001) FPS
Color space : YUV
Chroma subsampling : 4:2:0 (Type 2)
Bit depth : 10 bits
Bits/(Pixel*Frame) : 0.154
Stream size : 4.54 GiB (9%)
Title : Dolby Vision Enhancement Layer
Language : English
Default : No
Forced : No
Color range : Limited
Color primaries : BT.2020
Transfer characteristics : PQ
Matrix coefficients : BT.2020 non-constant
Mastering display color pri : R: x=0.680000 y=0.320000, G: x=0.265000 y=0.690000, B: x=0.150000 y=0.060000, White point: x=0.312700 y=0.329000
Mastering display luminance : min: 0.0001 cd/m2, max: 1000.0000 cd/m2

Audio #1
ID : 3
Format : AC-3
Format/Info : Audio Coding 3
Codec ID : A_AC3
Duration : 1 h 24 min
Bit rate mode : Constant
Bit rate : 640 kb/s
Channel(s) : 6 channels
Channel positions : Front: L C R, Side: L R, LFE
Sampling rate : 48.0 kHz
Frame rate : 31.250 FPS (1536 SPF)
Bit depth : 16 bits
Compression mode : Lossy
Stream size : 388 MiB (1%)
Title : Dub [License Blu-ray CEE]
Language : Russian
Service kind : Complete Main
Default : Yes
Forced : No

Audio #2
ID : 4
Format : DTS
Format/Info : Digital Theater Systems
Codec ID : A_DTS
Duration : 1 h 24 min
Bit rate mode : Constant
Bit rate : 1 509 kb/s
Channel(s) : 6 channels
Channel positions : Front: L C R, Side: L R, LFE
Sampling rate : 48.0 kHz
Frame rate : 93.750 FPS (512 SPF)
Bit depth : 24 bits
Compression mode : Lossy
Stream size : 914 MiB (2%)
Title : MVO [LostFilm]
Language : Russian
Default : No
Forced : No

Audio #3
ID : 5
Format : AC-3
Format/Info : Audio Coding 3
Codec ID : A_AC3
Duration : 1 h 24 min
Bit rate mode : Constant
Bit rate : 448 kb/s
Channel(s) : 6 channels
Channel positions : Front: L C R, Side: L R, LFE
Sampling rate : 48.0 kHz
Frame rate : 31.250 FPS (1536 SPF)
Bit depth : 16 bits
Compression mode : Lossy
Stream size : 271 MiB (1%)
Title : MVO [Kinomania]
Language : Russian
Service kind : Complete Main
Default : No
Forced : No

Audio #4
ID : 6
Format : AC-3
Format/Info : Audio Coding 3
Codec ID : A_AC3
Duration : 1 h 24 min
Bit rate mode : Constant
Bit rate : 448 kb/s
Channel(s) : 6 channels
Channel positions : Front: L C R, Side: L R, LFE
Sampling rate : 48.0 kHz
Frame rate : 31.250 FPS (1536 SPF)
Bit depth : 16 bits
Compression mode : Lossy
Stream size : 271 MiB (1%)
Title : AVO [Gavrilov]
Language : Russian
Service kind : Complete Main
Default : No
Forced : No

Audio #5
ID : 7
Format : DTS
Format/Info : Digital Theater Systems
Codec ID : A_DTS
Duration : 1 h 24 min
Bit rate mode : Constant
Bit rate : 1 509 kb/s
Channel(s) : 6 channels
Channel positions : Front: L C R, Side: L R, LFE
Sampling rate : 48.0 kHz
Frame rate : 93.750 FPS (512 SPF)
Bit depth : 24 bits
Compression mode : Lossy
Stream size : 914 MiB (2%)
Title : AVO [Nemahov]
Language : Russian
Default : No
Forced : No

Audio #6
ID : 8
Format : AC-3
Format/Info : Audio Coding 3
Codec ID : A_AC3
Duration : 1 h 24 min
Bit rate mode : Constant
Bit rate : 640 kb/s
Channel(s) : 6 channels
Channel positions : Front: L C R, Side: L R, LFE
Sampling rate : 48.0 kHz
Frame rate : 31.250 FPS (1536 SPF)
Bit depth : 16 bits
Compression mode : Lossy
Stream size : 388 MiB (1%)
Title : Dub [License Blu-ray CEE]
Language : Ukrainian
Service kind : Complete Main
Default : No
Forced : No

Audio #7
ID : 9
Format : TrueHD
Codec ID : A_TRUEHD
Duration : 1 h 24 min
Bit rate mode : Variable
Bit rate : 3 463 kb/s
Maximum bit rate : 5 544 kb/s
Channel(s) : 6 channels
Channel positions : Front: L C R, Side: L R, LFE
Sampling rate : 48.0 kHz
Frame rate : 1 200.000 FPS (40 SPF)
Compression mode : Lossless
Stream size : 2.05 GiB (4%)
Title : Original
Language : English
Default : No
Forced : No

Audio #8
ID : 10
Format : AC-3
Format/Info : Audio Coding 3
Codec ID : A_AC3
Duration : 1 h 24 min
Bit rate mode : Constant
Bit rate : 640 kb/s
Channel(s) : 6 channels
Channel positions : Front: L C R, Side: L R, LFE
Sampling rate : 48.0 kHz
Frame rate : 31.250 FPS (1536 SPF)
Bit depth : 16 bits
Compression mode : Lossy
Stream size : 388 MiB (1%)
Language : English
Service kind : Complete Main
Default : No
Forced : No

Text #1
ID : 11
Format : UTF-8
Codec ID : S_TEXT/UTF8
Codec ID/Info : UTF-8 Plain Text
Duration : 1 h 23 min
Bit rate : 107 b/s
Count of elements : 1194
Stream size : 66.0 KiB (0%)
Title : (Full) Blu-ray CEE
Language : Russian
Default : No
Forced : No

Text #2
ID : 12
Format : UTF-8
Codec ID : S_TEXT/UTF8
Codec ID/Info : UTF-8 Plain Text
Duration : 1 h 11 min
Bit rate : 130 b/s
Count of elements : 1179
Stream size : 68.7 KiB (0%)
Title : (Full) thx -DaRkY-
Language : Russian
Default : No
Forced : No

Text #3
ID : 13
Format : UTF-8
Codec ID : S_TEXT/UTF8
Codec ID/Info : UTF-8 Plain Text
Duration : 1 h 12 min
Bit rate : 0 b/s
Count of elements : 11
Stream size : 425 Bytes (0%)
Title : Nadpisi, etc...
Language : Russian
Default : No
Forced : No

Text #4
ID : 14
Format : UTF-8
Codec ID : S_TEXT/UTF8
Codec ID/Info : UTF-8 Plain Text
Duration : 1 h 24 min
Bit rate : 190 b/s
Count of elements : 1534
Stream size : 118 KiB (0%)
Title : (Director's commentary)
Language : Russian
Default : No
Forced : No

Text #5
ID : 15
Format : UTF-8
Codec ID : S_TEXT/UTF8
Codec ID/Info : UTF-8 Plain Text
Duration : 1 h 12 min
Bit rate : 138 b/s
Count of elements : 1193
Stream size : 73.8 KiB (0%)
Title : (Full) CEE Blu-ray
Language : Ukrainian
Default : No
Forced : No

Text #6
ID : 16
Format : UTF-8
Codec ID : S_TEXT/UTF8
Codec ID/Info : UTF-8 Plain Text
Duration : 1 h 12 min
Bit rate : 0 b/s
Count of elements : 13
Stream size : 539 Bytes (0%)
Title : Nadpisi, etc...
Language : Ukrainian
Default : No
Forced : No

Text #7
ID : 17
Format : UTF-8
Codec ID : S_TEXT/UTF8
Codec ID/Info : UTF-8 Plain Text
Duration : 1 h 11 min
Bit rate : 89 b/s
Count of elements : 1168
Stream size : 47.1 KiB (0%)
Title : (Full) CEE Blu-ray
Language : English
Default : No
Forced : No

Text #8
ID : 18
Format : UTF-8
Codec ID : S_TEXT/UTF8
Codec ID/Info : UTF-8 Plain Text
Duration : 1 h 23 min
Bit rate : 127 b/s
Count of elements : 1521
Stream size : 77.8 KiB (0%)
Title : (Director's commentary)
Language : English
Default : No
Forced : No

Menu
00:00:00.000 : en:Chapter 01
00:05:03.470 : en:Chapter 02
00:09:41.372 : en:Chapter 03
00:15:02.360 : en:Chapter 04
00:19:25.831 : en:Chapter 05
00:24:21.835 : en:Chapter 06
00:29:22.719 : en:Chapter 07
00:33:35.472 : en:Chapter 08
00:36:22.639 : en:Chapter 09
00:41:25.274 : en:Chapter 10
00:45:28.434 : en:Chapter 11
00:49:15.995 : en:Chapter 12
00:53:34.545 : en:Chapter 13
00:59:08.170 : en:Chapter 14
01:06:55.553 : en:Chapter 15
01:13:44.045 : en:Chapter 16



Скачать Монстро.Cloverfield.(Мэтт.Ривз).[2008.ужасы.фантастика.триллер.детектив.UHD.BDRemux].[2160p.(4K.HDR)].[Dub.(Лицензия)]+2x[MVO]+2x[AVO]+[Eng]+[Sub.Rus.Ukr.Eng].[Dolby.Vision].torrent без регистрации
Золото ЗОЛОТАЯ РАЗДАЧА! СКАЧАННОЕ НЕ ЗАСЧИТЫВАЕТСЯ! Золото
Дата: Зарегистрирован   [ Тип: внутренний ] Как тут cкачать?
MAGNET ссылка
MAGNET ссылка


Скачать .torrent

266 KB

Статус: проверено DHT
Скачан: торрент - 15 раз, раздача полностью - 3 раз
Размер: 52,99 GB
Оценка:  - (Голосов: 0)
Поблагодарили: 0
Поделиться ссылкой на эту раздачу с друзьями:
В контактеFacebookОдноклассникиTwitterLivejournalМой МирLiveinternet
 

 
Показать сообщения:    


Вы не можете начинать темы
Вы не можете отвечать на сообщения
Вы не можете редактировать свои сообщения
Вы не можете удалять свои сообщения
Вы не можете голосовать в опросах
Вы не можете прикреплять файлы к сообщениям
Вы можете скачивать файлы