Loading...
Error

Скачать Кловерфилд, 10 / 10 Cloverfield Lane (Дэн Трахтенберг) [2016, ужасы, фантастика, триллер, драма, детектив, UHD BDRemux] [2160p (4K HDR)] [Dub Rus, Ukr]+[Eng]+[Sub Rus, Eng] торрент без регистрации

Статистика раздачи
Размер:  41,2 GB   |    Скачан:  22 раза

Полного источника не было: 28 минут

 
 
 
Автор Сообщение

МихаНЕзатор

[] 

Информация о фильме
Название: Кловерфилд, 10
Оригинальное название: 10 Cloverfield Lane
Год выхода: 2016
Жанр: ужасы, фантастика, триллер, драма, детектив
Режиссер: Дэн Трахтенберг

В ролях: Джон Гудман, Мэри Элизабет Уинстэд, Джон Галлахер мл., Дуглас М. Гриффин, Сюзанн Крайер, Брэдли Купер, Сумали Монтано, Фрэнк Моттек, Kayla Bechor

О фильме: Проснувшись после автомобильной аварии, девушка оказывается в подвале человека, утверждающего, что он спас ей жизнь от химической атаки, которая сделала мир за пределами бункера непригодным для жизни.



• Релиз от: chvv4214

Страна: США
Продолжительность: 01:43:34
Перевод: Профессиональный (дублированный)

Файл
Формат: MKV
Видео: 3840x2160 at 23.976 fps, MPEG-H HEVC, ~50.3 Mbps avg
Аудио#1: Russian: 48 kHz, AC3, 3/2 (L,C,R,l,r) + LFE ch, ~640.00 kbps avg |Дубляж, Blu-ray CEE|
Аудио#2: Ukrainian: 48 kHz, AC3, 3/2 (L,C,R,l,r) + LFE ch, ~640.00 kbps avg |Дубляж, Blu-ray CEE|
Аудио#3: English: 48 kHz, TrueHD, 8 ch, ~8544.00 kbps avg
Аудио#4: English: 48 kHz, AC3, 3/2 (L,C,R,l,r) + LFE ch, ~640.00 kbps avg
Cубтитры: Russian, Ukrainian, English

АНОНСЫ ПОПУЛЯРНЫХ РАЗДАЧ
General
Unique ID : 234369268784798103135691440135008663475 (0xB051E11879167BA790A5F704E4BFB7B3)
Complete name : 10.Cloverfield.Lane.2016.2160p.BluRay.REMUX.HEVC.TrueHD.7.1.Atmos.mkv
Format : Matroska
Format version : Version 4 / Version 2
File size : 41.2 GiB
Duration : 1 h 43 min
Overall bit rate mode : Variable
Overall bit rate : 56.9 Mb/s
Movie name : 10.Cloverfield.Lane.2016.2160p.BluRay.REMUX.HEVC.MA.TrueHD.7.1.Atmos
Encoded date : UTC 2018-01-27 09:18:11
Writing application : mkvmerge v18.0.0 ('Apricity') 64-bit
Writing library : libebml v1.3.5 + libmatroska v1.4.8
Cover : Yes
Attachments : cover.jpg

Video
ID : 1
Format : HEVC
Format/Info : High Efficiency Video Coding
Format profile : Main 10@L5.1@High
Codec ID : V_MPEGH/ISO/HEVC
Duration : 1 h 43 min
Bit rate : 50.3 Mb/s
Width : 3 840 pixels
Height : 2 160 pixels
Display aspect ratio : 16:9
Frame rate mode : Constant
Frame rate : 23.976 (24000/1001) FPS
Color space : YUV
Chroma subsampling : 4:2:0 (Type 2)
Bit depth : 10 bits
Bits/(Pixel*Frame) : 0.253
Stream size : 36.4 GiB (88%)
Title : 10.Cloverfield.Lane.2016.2160p.BluRay.REMUX.HEVC.MA.TrueHD.7.1.Atmos
Default : Yes
Forced : No
Color range : Limited
Color primaries : BT.2020
Transfer characteristics : PQ
Matrix coefficients : BT.2020 non-constant
Mastering display color pri : Display P3
Mastering display luminance : min: 0.0001 cd/m2, max: 1000 cd/m2

Audio #1
ID : 2
Format : AC-3
Format/Info : Audio Coding 3
Codec ID : A_AC3
Duration : 1 h 43 min
Bit rate mode : Constant
Bit rate : 640 kb/s
Channel(s) : 6 channels
Channel positions : Front: L C R, Side: L R, LFE
Sampling rate : 48.0 kHz
Frame rate : 31.250 FPS (1536 SPF)
Bit depth : 16 bits
Compression mode : Lossy
Stream size : 474 MiB (1%)
Title : Лицензия
Language : Russian
Service kind : Complete Main
Default : No
Forced : No

Audio #2
ID : 3
Format : AC-3
Format/Info : Audio Coding 3
Codec ID : A_AC3
Duration : 1 h 43 min
Bit rate mode : Constant
Bit rate : 640 kb/s
Channel(s) : 6 channels
Channel positions : Front: L C R, Side: L R, LFE
Sampling rate : 48.0 kHz
Frame rate : 31.250 FPS (1536 SPF)
Bit depth : 16 bits
Compression mode : Lossy
Stream size : 474 MiB (1%)
Title : Ліцензія
Language : Ukrainian
Service kind : Complete Main
Default : No
Forced : No

Audio #3
ID : 4
Format : TrueHD
Format profile : TrueHD+Atmos / TrueHD
Codec ID : A_TRUEHD
Duration : 1 h 43 min
Bit rate mode : Variable
Bit rate : 4 614 kb/s
Maximum bit rate : 8 544 kb/s
Channel(s) : Object Based / 8 channels
Channel positions : Object Based / Front: L C R, Side: L R, Back: L R, LFE
Sampling rate : / 48.0 kHz
Frame rate : 1 200.000 FPS (40 SPF)
Compression mode : Lossless
Delay relative to video : 32 ms
Stream size : 3.34 GiB (8%)
Title : 10.Cloverfield.Lane.2016.2160p.BluRay.REMUX.HEVC.DTS-HD.MA.TrueHD.7.1.Atmos-FGT
Language : English
Default : Yes
Forced : No

Audio #4
ID : 5
Format : AC-3
Format/Info : Audio Coding 3
Codec ID : A_AC3
Duration : 1 h 43 min
Bit rate mode : Constant
Bit rate : 640 kb/s
Channel(s) : 6 channels
Channel positions : Front: L C R, Side: L R, LFE
Sampling rate : 48.0 kHz
Frame rate : 31.250 FPS (1536 SPF)
Bit depth : 16 bits
Compression mode : Lossy
Delay relative to video : 32 ms
Stream size : 474 MiB (1%)
Title : 10.Cloverfield.Lane.2016.2160p.BluRay.REMUX.HEVC.DTS-HD.MA.TrueHD.7.1.Atmos-FGT
Language : English
Service kind : Complete Main
Default : No
Forced : No

Text #1
ID : 6
Format : UTF-8
Codec ID : S_TEXT/UTF8
Codec ID/Info : UTF-8 Plain Text
Duration : 1 h 39 min
Bit rate : 49 b/s
Count of elements : 785
Stream size : 36.3 KiB (0%)
Title : Blu-ray CEE
Language : Russian
Default : No
Forced : No

Text #2
ID : 7
Format : UTF-8
Codec ID : S_TEXT/UTF8
Codec ID/Info : UTF-8 Plain Text
Duration : 1 h 39 min
Bit rate : 54 b/s
Count of elements : 842
Stream size : 39.5 KiB (0%)
Title : Blu-ray CEE
Language : Ukrainian
Default : No
Forced : No

Text #3
ID : 8
Format : UTF-8
Codec ID : S_TEXT/UTF8
Codec ID/Info : UTF-8 Plain Text
Duration : 1 h 32 min
Bit rate : 36 b/s
Count of elements : 843
Stream size : 24.8 KiB (0%)
Language : English
Default : No
Forced : No

Menu
00:00:00.000 : en:Chapter 1
00:05:55.605 : en:Chapter 2
00:14:52.516 : en:Chapter 3
00:19:18.157 : en:Chapter 4
00:24:11.992 : en:Chapter 5
00:32:21.940 : en:Chapter 6
00:42:59.243 : en:Chapter 7
00:47:47.739 : en:Chapter 8
00:53:37.088 : en:Chapter 9
00:57:00.625 : en:Chapter 10
01:03:10.745 : en:Chapter 11
01:11:20.192 : en:Chapter 12
01:15:49.419 : en:Chapter 13
01:24:21.264 : en:Chapter 14
01:28:19.085 : en:Chapter 15
01:37:31.512 : en:Chapter 16



Скачать Кловерфилд.10.10.Cloverfield.Lane.(Дэн.Трахтенберг).[2016.ужасы.фантастика.триллер.драма.детектив.UHD.BDRemux].[2160p.(4K.HDR)].[Dub.Rus.Ukr]+[Eng]+[Sub.Rus.Eng].torrent без регистрации
Золото ЗОЛОТАЯ РАЗДАЧА! СКАЧАННОЕ НЕ ЗАСЧИТЫВАЕТСЯ! Золото
Дата: Зарегистрирован   [ Тип: внутренний ] Как тут cкачать?
MAGNET ссылка
MAGNET ссылка


Скачать .torrent

104 KB

Статус: проверено DHT
Скачан: торрент - 22 раз, раздача полностью - 10 раз
Размер: 41,2 GB
Оценка:  - (Голосов: 0)
Поблагодарили: 1
Поделиться ссылкой на эту раздачу с друзьями:
В контактеFacebookОдноклассникиTwitterLivejournalМой МирLiveinternet
 

 
Показать сообщения:    


Вы не можете начинать темы
Вы не можете отвечать на сообщения
Вы не можете редактировать свои сообщения
Вы не можете удалять свои сообщения
Вы не можете голосовать в опросах
Вы не можете прикреплять файлы к сообщениям
Вы можете скачивать файлы