Loading...
Error

Скачать Смерть Сталина / The Death of Stalin (Армандо Ианнуччи) [2017, комедия, BDRip] [720p] 2x[AVO] (Сербин, Яроцкий) торрент без регистрации

Статистика раздачи
Размер:  5,76 GB   |    Скачан:  394 раза
Сидов:  2  [  0 KB/s  ]  
 
 
 
Автор Сообщение

leon030982

[] 

Смерть Сталина / The Death of Stalin


Год выпуска: 2017
Страна: Великобритания, Франция
Жанр: комедия
Продолжительность: 01:46:34
Перевод 1: Авторский (одноголосый)Юрий Сербин
Перевод 2: Авторский (одноголосый) Михаил Яроцкий

Режиссер: Армандо Ианнуччи

В ролях: Ольга Куриленко, Андреа Райзборо, Руперт Френд, Джейсон Айзекс, Стив Бушеми, Джеффри Тэмбор, Ричард Брэйк, Пэдди Консидайн, Майкл Пэйлин, Джонатан Арис

Описание:
СССР, 1953 год. Страна трепещет от страха перед одним человеком. 5 марта Генсек умер. Когда уходит великий вождь, наступает время борьбы за власть. Гонка началась!.. В общем, тоталитарная комедия в вольной трактовке.



Качество: BDRip 720p
Формат: MKV
Видео кодек: H.264
Аудио кодек: AC3
Видео: MPEG-4 AVC, 5815 Кбит/с, 1280x692, 24.000 кадр/сек
Аудио 1: AC3 / 5.1 / 48 kHz / 640 kbps / 16 bit | Ю.Сербин
Аудио 2: AC3 / 5.1 / 48 kHz / 640 kbps / 16 bit | М.Яроцкий
Аудио 3: AC3 / 5.1 / 48 kHz / 640 kbps / 16 bit | ENG
Субтитры: русские, английские (Full), английские (SDH), английские (SDH-Colored)

Торент обновлен ! заменен перевод
General
Unique ID : 178147311071833660614943967997940308738 (0x8605EC91327222F6AA692478F3E99B02)
Complete name : F:\Smert.Stalina.2017.2xRus.Eng.BDRip.720p.-HELLYWOOD.mkv
Format : Matroska
Format version : Version 4 / Version 2
File size : 5.76 GiB
Duration : 1 h 46 min
Overall bit rate : 7 736 kb/s
Movie name : The Death of Stalin (2017)
Encoded date : UTC 2018-06-03 02:34:12
Writing application : mkvmerge v5.9.0 ('On The Loose') built on Dec 15 2012 16:39:58
Writing library : libebml v1.3.0 + libmatroska v1.4.0

Video
ID : 1
Format : AVC
Format/Info : Advanced Video Codec
Format profile : High@L4.1
Format settings : CABAC / 9 Ref Frames
Format settings, CABAC : Yes
Format settings, RefFrames : 9 frames
Codec ID : V_MPEG4/ISO/AVC
Duration : 1 h 46 min
Bit rate : 5 815 kb/s
Width : 1 280 pixels
Height : 692 pixels
Display aspect ratio : 1.85:1
Frame rate mode : Constant
Frame rate : 24.000 FPS
Color space : YUV
Chroma subsampling : 4:2:0
Bit depth : 8 bits
Scan type : Progressive
Bits/(Pixel*Frame) : 0.274
Stream size : 4.21 GiB (73%)
Title : potroks
Writing library : x264 core 155 r2901M 7d0ff22
Encoding settings : cabac=1 / ref=9 / deblock=1:-3:-3 / analyse=0x3:0x133 / me=umh / subme=11 / psy=1 / psy_rd=1.00:0.05 / mixed_ref=1 / me_range=48 / chroma_me=1 / trellis=2 / 8x8dct=1 / cqm=0 / deadzone=21,11 / fast_pskip=0 / chroma_qp_offset=-3 / threads=9 / lookahead_threads=2 / sliced_threads=0 / nr=0 / decimate=0 / interlaced=0 / bluray_compat=0 / constrained_intra=0 / bframes=11 / b_pyramid=2 / b_adapt=2 / b_bias=0 / direct=3 / weightb=1 / open_gop=0 / weightp=2 / keyint=240 / keyint_min=23 / scenecut=40 / intra_refresh=0 / rc_lookahead=135 / rc=2pass / mbtree=0 / bitrate=5815 / ratetol=1.0 / qcomp=0.70 / qpmin=0 / qpmax=69 / qpstep=4 / cplxblur=20.0 / qblur=0.5 / vbv_maxrate=50000 / vbv_bufsize=50000 / nal_hrd=none / filler=0 / ip_ratio=1.40 / pb_ratio=1.30 / aq=1:0.70
Language : English
Default : Yes
Forced : No
Color range : Limited
Color primaries : BT.709
Transfer characteristics : BT.709
Matrix coefficients : BT.709

Audio #1
ID : 2
Format : AC-3
Format/Info : Audio Coding 3
Format settings, Endianness : Big
Codec ID : A_AC3
Duration : 1 h 46 min
Bit rate mode : Constant
Bit rate : 640 kb/s
Channel(s) : 6 channels
Channel positions : Front: L C R, Side: L R, LFE
Sampling rate : 48.0 kHz
Frame rate : 31.250 FPS (1536 SPF)
Bit depth : 16 bits
Compression mode : Lossy
Stream size : 488 MiB (8%)
Title : AVO | DD 5.1 @ 640 kbps - Yu.Serbin
Language : Russian
Service kind : Complete Main
Default : Yes
Forced : No

Audio #2
ID : 3
Format : AC-3
Format/Info : Audio Coding 3
Format settings, Endianness : Big
Codec ID : A_AC3
Duration : 1 h 46 min
Bit rate mode : Constant
Bit rate : 640 kb/s
Channel(s) : 6 channels
Channel positions : Front: L C R, Side: L R, LFE
Sampling rate : 48.0 kHz
Frame rate : 31.250 FPS (1536 SPF)
Bit depth : 16 bits
Compression mode : Lossy
Stream size : 488 MiB (8%)
Title : AVO | DD 5.1 @ 640 kbps - M.Yarotsky
Language : Russian
Service kind : Complete Main
Default : No
Forced : No

Audio #3
ID : 4
Format : AC-3
Format/Info : Audio Coding 3
Format settings, Endianness : Big
Codec ID : A_AC3
Duration : 1 h 46 min
Bit rate mode : Constant
Bit rate : 640 kb/s
Channel(s) : 6 channels
Channel positions : Front: L C R, Side: L R, LFE
Sampling rate : 48.0 kHz
Frame rate : 31.250 FPS (1536 SPF)
Bit depth : 16 bits
Compression mode : Lossy
Stream size : 488 MiB (8%)
Title : Original | DD 5.1 @ 640 kbps
Language : English
Service kind : Complete Main
Default : No
Forced : No

Text #1
ID : 5
Format : UTF-8
Codec ID : S_TEXT/UTF8
Codec ID/Info : UTF-8 Plain Text
Language : Russian
Default : No
Forced : No

Text #2
ID : 6
Format : UTF-8
Codec ID : S_TEXT/UTF8
Codec ID/Info : UTF-8 Plain Text
Title : Full
Language : English
Default : No
Forced : No

Text #3
ID : 7
Format : UTF-8
Codec ID : S_TEXT/UTF8
Codec ID/Info : UTF-8 Plain Text
Title : SDH
Language : English
Default : No
Forced : No

Text #4
ID : 8
Format : UTF-8
Codec ID : S_TEXT/UTF8
Codec ID/Info : UTF-8 Plain Text
Title : SDH-Colored
Language : English
Default : No
Forced : No

Menu
00:00:00.000 : :Chapter 1
00:06:38.875 : :Chapter 2
00:13:02.583 : :Chapter 3
00:19:53.125 : :Chapter 4
00:29:06.125 : :Chapter 5
00:33:58.250 : :Chapter 6
00:40:22.417 : :Chapter 7
00:45:28.000 : :Chapter 8
00:50:35.000 : :Chapter 9
00:58:40.750 : :Chapter 10
01:03:23.667 : :Chapter 11
01:12:31.750 : :Chapter 12
01:17:42.917 : :Chapter 13
01:24:49.000 : :Chapter 14
01:33:33.708 : :Chapter 15
01:39:25.583 : :Chapter 16



Скачать Смерть.Сталина.The.Death.of.Stalin.(Армандо.Ианнуччи).[2017.комедия.BDRip].[720p].2x[AVO].(Сербин.Яроцкий).torrent без регистрации
Золото ЗОЛОТАЯ РАЗДАЧА! СКАЧАННОЕ НЕ ЗАСЧИТЫВАЕТСЯ! Золото
Дата: Зарегистрирован   [ Тип: внутренний ] Как тут cкачать?
MAGNET ссылка
MAGNET ссылка


Скачать .torrent

30 KB

Статус: проверено DHT
Скачан: торрент - 394 раз, раздача полностью - 53 раз
Размер: 5,76 GB
Оценка:  4 (Голосов: 4)
Поблагодарили: 18
Поделиться ссылкой на эту раздачу с друзьями:
В контактеFacebookОдноклассникиTwitterLivejournalМой МирLiveinternet
 

 
Показать сообщения:    


Вы не можете начинать темы
Вы не можете отвечать на сообщения
Вы не можете редактировать свои сообщения
Вы не можете удалять свои сообщения
Вы не можете голосовать в опросах
Вы не можете прикреплять файлы к сообщениям
Вы можете скачивать файлы