Loading...
Error

Скачать По ту сторону / Обратная сторона / Counterpart (Сезон 01) (Алик Сахаров, Мортен Тильдум) [2018, Триллер, научная фантастика, WEBRip] [MVO] (Profix Media) + Original торрент без регистрации

Статистика раздачи
Размер:  6,44 GB   |    Скачан:  99 раз
Сидов:  1  [  0 KB/s  ]  
 
 
 
Автор Сообщение

leon030982

[] 

ПО ТУ СТОРОНУ
Counterpart
Год выпуска: 2018
Страна: США
Жанр: Триллер, научная фантастика
Продолжительность: ~00:55:00
Перевод: Профессиональный (многоголосый закадровый) [Студия «Profix Media»]

Режиссёр: Алик Сахаров, Мортен Тильду

В ролях: Дж. К. Симмонс — Говард Силк, Оливия Уильямс — Эмили Бёртон Силк, жена Говарда, Гарри Ллойд — Питер Куайл, директор в агентстве Говарда, Сара Серайокко — Болдуин, таинственный убийца, Ульрих Томсен — Олдрич, закалённый директор по операциям в агентстве Говарда, Мидо Хамада — Сайрус, офицер агентства «по ту сторону», который является правой рукой Олдрича, Назанин Бониади — Клэр, загадочная молодая женщина с любопытным прошлым, которая становится ключевой фигурой всех событий, Николас Пиннок — Иэн Шоу, воинственный оперативник и наблюдатель, Джейми Бамбер — Эрик, деверь Говарда

Описание: «По ту сторону» — шпионский фантастический триллер с метафизической составляющей — рассказывает про Говарда Силка (Симмонс), скромного служащего бюрократической агентства ООН. Силк обнаруживает, что это агентство охраняет секрет перехода в параллельное измерение. С помощью Говарда и его „коллеги“ с «другой стороны», Прайма, шоу будет затрагивать темы личности, идеализма, потерянной любви и «а что, если…».



Автор рипа -- JuSSiKa

Качество: WEBRip
Формат: AVI
Видео: XviD, 720x400 (16:9), 23,976 fps, ~1450 kbps
Аудио Rus: MP3, 48 kHz, 2 ch, 128 kbps
Аудио Eng: MP3, 48 kHz, 2 ch, 128 kbps
Субтитры: отсутствуют

Добавлена 10-я серия!
Полное имя                               : Counterpart.S01.WEBRip.RusEng.Profix.Media\Counterpart.S01E01.WEBRip.RusEng.Profix.Media.L.avi
Формат                                   : AVI
Формат/Информация                        : Audio Video Interleave
Размер файла                             : 681 Мбайт
Продолжительность                        : 55 м. 25 с.
Общий поток                              : 1717 Кбит/сек
Программа кодирования                    : VirtualDubMod 1.5.10.3 (build 2550/release)
Библиотека кодирования                   : VirtualDubMod build 2550/release

Видео
Идентификатор                            : 0
Формат                                   : MPEG-4 Visual
Профиль формата                          : Advanced Simple@L5
Настройки формата                        : BVOP1
Параметр BVOP формата                    : 1
Параметр QPel формата                    : Нет
Параметр GMC формата                     : Без точки перехода
Параметр матрицы формата                 : Default (H.263)
Идентификатор кодека                     : XVID
Идентификатор кодека/Подсказка           : XviD
Продолжительность                        : 55 м. 25 с.
Битрейт                                  : 1447 Кбит/сек
Ширина                                   : 720 пикселей
Высота                                   : 400 пикселей
Соотношение сторон                       : 16:9
Частота кадров                           : 23,976 (24000/1001) кадра/сек
Цветовое пространство                    : YUV
Субдискретизация насыщенности            : 4:2:0
Битовая глубина                          : 8 бит
Тип развёртки                            : Прогрессивная
Метод сжатия                             : С потерями
Бит/(Пиксели*Кадры)                      : 0.210
Размер потока                            : 574 Мбайт (84%)
Библиотека кодирования                   : XviD 1.2.1 (UTC 2008-12-04)

Аудио #1
Идентификатор                            : 1
Формат                                   : MPEG Audio
Версия формата                           : Version 1
Профиль формата                          : Layer 3
Настройки формата                        : Joint stereo / MS Stereo
Режим                                    : Joint stereo
Расширение режима                        : MS Stereo
Идентификатор кодека                     : 55
Идентификатор кодека/Подсказка           : MP3
Продолжительность                        : 55 м. 25 с.
Вид битрейта                             : Постоянный
Битрейт                                  : 128 Кбит/сек
Каналы                                   : 2 канала
Частота                                  : 48,0 КГц
Метод сжатия                             : С потерями
Размер потока                            : 50,7 Мбайт (7%)
Выравнивание                             : Соединение по промежуткам
Продолжительность промежутка             : 42  мс. (1,00 видеокадр)
Время предзагрузки промежутка            : 504  мс.

Аудио #2
Идентификатор                            : 2
Формат                                   : MPEG Audio
Версия формата                           : Version 1
Профиль формата                          : Layer 3
Настройки формата                        : Joint stereo / MS Stereo
Режим                                    : Joint stereo
Расширение режима                        : MS Stereo
Идентификатор кодека                     : 55
Идентификатор кодека/Подсказка           : MP3
Продолжительность                        : 55 м. 25 с.
Вид битрейта                             : Постоянный
Битрейт                                  : 128 Кбит/сек
Каналы                                   : 2 канала
Частота                                  : 48,0 КГц
Метод сжатия                             : С потерями
Размер потока                            : 50,7 Мбайт (7%)
Выравнивание                             : Соединение по промежуткам
Продолжительность промежутка             : 42  мс. (1,00 видеокадр)
Время предзагрузки промежутка            : 504  мс.
Внимание! Раздача ведётся путём добавления новых серий; при каждом добавлении создаётся новый торрент. Чтобы начать докачку новой серии, пользователям необходимо сделать следующее:
(1) остановить скачивание,
(2) удалить старый торрент у себя из клиента (старые серии удалять не надо),
(3) скачать новый торрент и запустить его у себя в клиенте вместо старого, при этом указать клиенту путь в старую папку куда и должно происходить скачивание новых серий.

Ваш клиент при этом должен произвести хеширование (проверку) старой папки (если не производит сам - помогите ему сделать это), и будет докачивать только те серии которых у вас ещё нет. Старые серии при этом не удаляются, а продолжают раздаваться!

Eсли вы уже удалили старые серии, то предотвратить повторную закачку старых серий можно, отжав галочку в соответствующих местах при запуске нового торрента. По возможности, желательно не удалять старые серии как можно дольше, чтобы релизёр не столько продолжал раздавать старые серии, а смог сконцентрироваться на новых.



Скачать По.ту.сторону.Обратная.сторона.Counterpart.(Сезон.01).(Алик.Сахаров.Мортен.Тильдум).[2018.Триллер.научная.фантастика.WEBRip].[MVO].(Profix.Media).+.Original.torrent без регистрации
Золото ЗОЛОТАЯ РАЗДАЧА! СКАЧАННОЕ НЕ ЗАСЧИТЫВАЕТСЯ! Золото
Дата: Зарегистрирован   [ Тип: внутренний ] Как тут cкачать?
MAGNET ссылка
MAGNET ссылка


Скачать .torrent

34 KB

Статус: проверено DHT
Скачан: торрент - 99 раз, раздача полностью - 14 раз
Размер: 6,44 GB
Оценка:  5 (Голосов: 1)
Поблагодарили: 1
Поделиться ссылкой на эту раздачу с друзьями:
В контактеFacebookОдноклассникиTwitterLivejournalМой МирLiveinternet
 

 
Показать сообщения:    


Вы не можете начинать темы
Вы не можете отвечать на сообщения
Вы не можете редактировать свои сообщения
Вы не можете удалять свои сообщения
Вы не можете голосовать в опросах
Вы не можете прикреплять файлы к сообщениям
Вы можете скачивать файлы