Loading...
Error

Скачать Королевство обезьян / Monkey Kingdom (Марк Линфилд, Аластер Фовергилл) [2015, документальный, природа, животные, фауна, видовой, BDRemux] [1080p] [Dub] торрент без регистрации

Статистика раздачи
Размер:  17,69 GB   |    Скачан:  208 раз
Сидов:  1  [  0 KB/s  ]  
 
 
 
Автор Сообщение

Marsianka

[] 

Информация о фильме
Название: Королевство обезьян
Оригинальное: Monkey Kingdom
Год выхода: 2015
Жанр: документальный, природа, животные, фауна, видовой
Режиссер: Марк Линфилд, Аластер Фовергилл

О фильме:
Речь идет об истинном королевстве обезьян, в настоящий момент безраздельно властвующих в руинах давно заброшенного города посреди обширных тропических лесов. На первый взгляд примитивные и немного комичные существа на самом деле проживают в хорошо организованных сообществах, внутри которых действуют строгие нравы и порядки. Например, там наличествует строжайшая иерархия, разделяющая особей на различные сословия, принадлежность к которым определяет своеобразное положение в этом неповторимом зверином «обществе». Ведь только те, кто относится к почитаемой здесь высшей общественной прослойке, могут позволить себе питаться лучшими, самыми спелыми фруктами с вершин деревьев и пренебрежительно относится к более низким по социальному статусу сородичам. Тем, кому повезло меньше, приходится довольствоваться малым, зачастую кормясь лишь объедками и получая увесистые оплеухи от более знатных «персон» обезьяньего царства. Вокруг них раскинулся живописный мир исконной природы, населенной разнообразнейшими зверями, с некоторыми из которых непоседливым макакам хочется поиграть, а от других они стараются держаться подальше. На примере одной из здешних жительниц, обезьянки Майи, авторы детально изображают особенности жизни практически бесправных по местным меркам индивидуумов, сталкивающихся с множеством проблем, будь то поиск пищи или выяснение отношений с прочими членами стаи.



Страна: США
Продолжительность: 01:20:44
Перевод: Дублированный

Файл
Кодек: MPEG-4 AVC
Качество: BDRemux 1080p
Видео: 1920х1080, 30,7 Мбит/с, 24 кадра/с
Звук: AC-3, 6 каналов, 640 Кбит/с
Общее
Уникальный идентификатор : 81358978998768306824549450187357191344 (0x3D352B5D221A150FB54016179C527CB0)
Полное имя : C:КОРОЛЕВСТВО ОБЕЗЬЯН.mkv
Формат : Matroska
Версия формата : Version 4 / Version 2
Размер файла : 17,7 Гбайт
Продолжительность : 1 ч. 20 м.
Режим общего битрейта : Переменный
Общий поток : 31,3 Мбит/сек
Дата кодирования : UTC 2018-01-29 15:25:51
Программа кодирования : mkvmerge v20.0.0 ('I Am The Sun') 64-bit
Библиотека кодирования : libebml v1.3.5 + libmatroska v1.4.8

Видео
Идентификатор : 1
Формат : AVC
Формат/Информация : Advanced Video Codec
Профиль формата : High@L4.1
Настройки формата : CABAC / 4 Ref Frames
Параметр CABAC формата : Да
Параметр RefFrames формата : 4 кадра
Идентификатор кодека : V_MPEG4/ISO/AVC
Продолжительность : 1 ч. 20 м.
Вид битрейта : Переменный
Битрейт : 30,7 Мбит/сек
Максимальный битрейт : 32,0 Мбит/сек
Ширина : 1920 пикселей
Высота : 1080 пикселей
Соотношение сторон : 16:9
Режим частоты кадров : Постоянный
Частота кадров : 23,976 (24000/1001) кадра/сек
Цветовое пространство : YUV
Субдискретизация насыщенности : 4:2:0
Битовая глубина : 8 бит
Тип развёртки : Прогрессивная
Бит/(Пиксели*Кадры) : 0.618
Размер потока : 17,3 Гбайт (98%)
Default : Да
Forced : Нет

Аудио
Идентификатор : 2
Формат : AC-3
Формат/Информация : Audio Coding 3
Идентификатор кодека : A_AC3
Продолжительность : 1 ч. 20 м.
Вид битрейта : Постоянный
Битрейт : 640 Кбит/сек
Каналы : 6 каналов
Расположение каналов : Front: L C R, Side: L R, LFE
Частота : 48,0 КГц
Частота кадров : 31,250 кадров/сек (1536 SPF)
Битовая глубина : 16 бит
Метод сжатия : С потерями
Размер потока : 370 Мбайт (2%)
Язык : Russian
Default : Да
Forced : Нет



Скачать Королевство.обезьян.Monkey.Kingdom.(Марк.Линфилд.Аластер.Фовергилл).[2015.документальный.природа.животные.фауна.видовой.BDRemux].[1080p].[Dub].torrent без регистрации
Золото ЗОЛОТАЯ РАЗДАЧА! СКАЧАННОЕ НЕ ЗАСЧИТЫВАЕТСЯ! Золото
Дата: Зарегистрирован   [ Тип: внутренний ] Как тут cкачать?
MAGNET ссылка
MAGNET ссылка


Скачать .torrent

45 KB

Статус: проверено DHT
Скачан: торрент - 208 раз, раздача полностью - 1 раз
Размер: 17,69 GB
Оценка:  - (Голосов: 0)
Поблагодарили: 0
Поделиться ссылкой на эту раздачу с друзьями:
В контактеFacebookОдноклассникиTwitterLivejournalМой МирLiveinternet
 

 
Показать сообщения:    


Вы не можете начинать темы
Вы не можете отвечать на сообщения
Вы не можете редактировать свои сообщения
Вы не можете удалять свои сообщения
Вы не можете голосовать в опросах
Вы не можете прикреплять файлы к сообщениям
Вы можете скачивать файлы