Loading...
Error

Скачать Алиенист / The Alienist (Сезон 01) (Пако Кабесас, Джеймс Хоуз) [2018, драма, детектив, WEB-DL 720p] [MVO] (AlexFilm) торрент без регистрации

Статистика раздачи
Размер:  9,19 GB   |    Скачан:  83 раза
Сидов:  2  [  0 KB/s  ]  
 
 
 
Автор Сообщение

leon030982

[] 

Алиенист / The Alienist

Год выпуска: 2018
Страна: США,
Жанр: драма, детектив
Продолжительность: ~ 00:48:00
Озвучание: Профессиональное (многоголосое закадровое) (AlexFilm)
Субтитры: английские

Режиссеры: Пако Кабесас, Джеймс Хоуз, Джэми Пэйн

В ролях: Даниэль Брюль, Дакота Фаннинг, Люк Эванс, Мэттью Линтц, Мартин МакКриди, Мэттью Шир, Дуглас Смит, Дэвид Уилмот, К’Орианка Килчер и др.

Описание: В конце XIX века, в 1896 году, Нью-Йорк потрясает серия жестоких убийств: в городских трущобах убивают детей, с каждым разом все более и более изощренно — будто исполняется какой-то кровавый ритуал. Расследование ведет яркая команда: будущий президент, а пока комиссар полиции Теодор Рузвельт, выдающийся психолог-алиенист (изучает умственные патологии) Ласло Крайцлер и репортер уголовной хроники Джон Скайлер Мур.

Релиз:

Перевод: Мисс Джэксон, Алиса Голланова
Монтаж и сведение звука: Михаил Шорыгин
Роли озвучивали:
Светлана Чистохина
Алёна Левичева
Кирилл Патрино
Константин Федосеев
Дмитрий Лунёв
Алексей Никитин
Михаил Суслов



Автор релиза и очистка от рекламы: Atla22

Качество: WEB-DL 720p
Формат: MKV
Видео: MPEG-4 AVC, 1923 Кбит/с, 1280x720, 23.976 fps
Аудио Rus: 48 kHz, AC3 Dolby Digital, 3/2 (L,C,R,l,r) + LFE ch, ~384.00 kbps avg
Аудио Eng: 48 kHz, AC3 Dolby Digital, 3/2 (L,C,R,l,r) + LFE ch, ~384.00 kbps avg

Добавлена 10-я серия!
General
Unique ID : 180981070063949626605763573960548591343 (0x8827AFAC22E0458A99D775681DD0A6EF)
Complete name : Алиенист. Сериал. AlexFilm (WEB-DL 720p)\s01e01. Мальчик на мосту.mkv
Format : Matroska
Format version : Version 2
File size : 948 MiB
Duration : 48 min 15 s
Overall bit rate mode : Variable
Overall bit rate : 2 746 kb/s
Movie name : The Boy on the Bridge
Encoded date : UTC 2018-01-25 12:51:01
Writing application : mkvmerge v7.8.0 ('River Man') 32bit built on Apr 3 2015 12:11:22
Writing library : libebml v1.3.1 + libmatroska v1.4.2

Video
ID : 1
Format : AVC
Format/Info : Advanced Video Codec
Format profile : High@L3.1
Format settings : CABAC / 5 Ref Frames
Format settings, CABAC : Yes
Format settings, ReFrames : 5 frames
Codec ID : V_MPEG4/ISO/AVC
Duration : 48 min 15 s
Bit rate mode : Variable
Bit rate : 1 923 kb/s
Maximum bit rate : 4 500 kb/s
Width : 1 280 pixels
Height : 720 pixels
Display aspect ratio : 16:9
Frame rate mode : Constant
Frame rate : 23.976 (24000/1001) FPS
Color space : YUV
Chroma subsampling : 4:2:0
Bit depth : 8 bits
Scan type : Progressive
Bits/(Pixel*Frame) : 0.087
Stream size : 664 MiB (70%)
Language : English
Default : Yes
Forced : No
Color range : Limited
Color primaries : BT.709
Transfer characteristics : BT.709
Matrix coefficients : BT.709

Audio #1
ID : 2
Format : AC-3
Format/Info : Audio Coding 3
Codec ID : A_AC3
Duration : 48 min 15 s
Bit rate mode : Constant
Bit rate : 384 kb/s
Channel(s) : 6 channels
Channel positions : Front: L C R, Side: L R, LFE
Sampling rate : 48.0 kHz
Frame rate : 31.250 FPS (1536 SPF)
Bit depth : 16 bits
Compression mode : Lossy
Stream size : 133 MiB (14%)
Language : Russian
Service kind : Complete Main
Default : Yes
Forced : No

Audio #2
ID : 3
Format : AC-3
Format/Info : Audio Coding 3
Codec ID : A_AC3
Duration : 48 min 15 s
Bit rate mode : Constant
Bit rate : 384 kb/s
Channel(s) : 6 channels
Channel positions : Front: L C R, Side: L R, LFE
Sampling rate : 48.0 kHz
Frame rate : 31.250 FPS (1536 SPF)
Bit depth : 16 bits
Compression mode : Lossy
Stream size : 133 MiB (14%)
Language : English
Service kind : Complete Main
Default : No
Forced : No

Text
ID : 4
Format : UTF-8
Codec ID : S_TEXT/UTF8
Codec ID/Info : UTF-8 Plain Text
Language : English
Default : No
Forced : No
Внимание! Раздача ведётся путём добавления новых серий; при каждом добавлении создаётся новый торрент. Чтобы начать докачку новой серии, пользователям необходимо сделать следующее:
(1) остановить скачивание,
(2) удалить старый торрент у себя из клиента (старые серии удалять не надо),
(3) скачать новый торрент и запустить его у себя в клиенте вместо старого, при этом указать клиенту путь в старую папку куда и должно происходить скачивание новых серий.
Ваш клиент при этом должен произвести хеширование (проверку) старой папки (если не производит сам - помогите ему сделать это), и будет докачивать только те серии которых у вас ещё нет. Старые серии при этом не удаляются, а продолжают раздаваться!
Eсли вы уже удалили старые серии, то предотвратить повторную закачку старых серий можно, отжав галочку в соответствующих местах при запуске нового торрента. По возможности, желательно не удалять старые серии как можно дольше чтобы релизёр не столько продолжал раздавать старые серии, а смог сконцентрироваться на новых.



Скачать Алиенист.The.Alienist.(Сезон.01).(Пако.Кабесас.Джеймс.Хоуз).[2018.драма.детектив.WEB-DL.720p].[MVO].(AlexFilm).torrent без регистрации
Золото ЗОЛОТАЯ РАЗДАЧА! СКАЧАННОЕ НЕ ЗАСЧИТЫВАЕТСЯ! Золото
Дата: Зарегистрирован   [ Тип: внутренний ] Как тут cкачать?
MAGNET ссылка
MAGNET ссылка


Скачать .torrent

24 KB

Статус: проверено DHT
Скачан: торрент - 83 раз, раздача полностью - 118 раз
Размер: 9,19 GB
Оценка:  - (Голосов: 0)
Поблагодарили: 1
Поделиться ссылкой на эту раздачу с друзьями:
В контактеFacebookОдноклассникиTwitterLivejournalМой МирLiveinternet
 

 
Показать сообщения:    


Вы не можете начинать темы
Вы не можете отвечать на сообщения
Вы не можете редактировать свои сообщения
Вы не можете удалять свои сообщения
Вы не можете голосовать в опросах
Вы не можете прикреплять файлы к сообщениям
Вы можете скачивать файлы