Loading...
Error

Скачать Волшебники из Вэйверли Плэйс в кино / Wizards of Waverly Place: The Movie (Лев Л. Спиро) [2009, фэнтези, драма, комедия, приключения, семейный, WEB-DLRip] [Dub]+[Оригинал Eng] торрент без регистрации

Статистика раздачи
Размер:  1,47 GB   |    Скачан:  18 раз
Сидов:  2  [  0 KB/s  ]  
 
 
 
Автор Сообщение

Marsianka

[] 

«Family vacations can be tricky»

Страна: США
Производство: It's a Laugh Productions

Жанр: фэнтези, драма, комедия, приключения, семейный
Год выпуска: 2009
Продолжительность: 01:38:03

Перевод: Профессиональный (дублированный)
Оригинальная аудиодорожка: английский
Cубтитры: нет

Режиссер: Лев Л. Спиро / Lev L. Spiro

В ролях:
Селена Гомес, Дэвид Генри, Джейк Т. Остин, Дженнифер Стоун, Мария Кэнелс-Баррера, Дэвид ДеЛуис, Стив Валентайн, Ксавьер Торрес, Дженни Элден, Жасмин Каратини...

Описание:
Семья волшебников Руссо решает провести каникулы на Карибах — именно там Джерри и Тереза встретились в первый раз. Алекс расстроена, поскольку она должна сопровождать свою семью в поездке, а это не входит в её планы. Заклинанием она меняет ход событий прошлого, предотвращая первую встречу своих родителей, и ставит под угрозу существование всей своей семьи. Чтобы отменить действие заклинания, Алекс и Джастин отправляются в невероятное путешествие через джунгли. Тем временем, Макс, младший брат Алекс, прикладывает массу усилий, чтобы родители влюбились друг в друга вновь.


Исходник: WEB-DL 1080p
Тип релиза: WEB-DLRip
Контейнер: AVI

Видео: 720x400 (16:9), 23,976 fps, XviD ~ 1546 kbps avg, 0.224 bit/pixel
Аудио: 48 kHz, Dolby Digital AC3 2.0, 192 kbps Дублированный
Аудио: 48 kHz, Dolby Digital AC3 2.0, 192 kbps Украинский
Аудио: 48 kHz, Dolby Digital AC3 2.0, 192 kbps Английский
Раздача от:

Общее
Полное имя : Volshebniki.iz.Vyeyverli.Plyeys.v.kino.2009.WEB-DLRip_[New-team]_by_AVP_Studio.avi
Формат : AVI
Формат/Информация : Audio Video Interleave
Размер файла : 1,47 Гбайт
Продолжительность : 1 ч. 38 м.
Общий поток : 2146 Кбит/сек

Видео
Идентификатор : 0
Формат : MPEG-4 Visual
Профиль формата : Advanced Simple@L5
Настройки формата : BVOP1 / Custom Matrix
Параметр BVOP формата : 1
Параметр QPel формата : Нет
Параметр GMC формата : Без точки перехода
Параметр матрицы формата : Выборочная
Идентификатор кодека : XVID
Идентификатор кодека/Подсказка : XviD
Продолжительность : 1 ч. 38 м.
Битрейт : 1546 Кбит/сек
Ширина : 720 пикселей
Высота : 400 пикселей
Соотношение сторон : 16:9
Частота кадров : 23,976 (23976/1000) кадра/сек
Цветовое пространство : YUV
Субдискретизация насыщенности : 4:2:0
Битовая глубина : 8 бит
Тип развёртки : Прогрессивная
Метод сжатия : С потерями
Бит/(Пиксели*Кадры) : 0.224
Размер потока : 1,06 Гбайт (72%)
Библиотека кодирования : XviD 73

Аудио #1
Идентификатор : 1
Формат : AC-3
Формат/Информация : Audio Coding 3
Идентификатор кодека : 2000
Продолжительность : 1 ч. 38 м.
Вид битрейта : Постоянный
Битрейт : 192 Кбит/сек
Каналы : 2 канала
Расположение каналов : Front: L R
Частота : 48,0 КГц
Частота кадров : 31,250 кадров/сек (1536 SPF)
Битовая глубина : 16 бит
Метод сжатия : С потерями
Размер потока : 135 Мбайт (9%)
Выравнивание : Соединение по промежуткам
Продолжительность промежутка : 32 мс. (0,77 видеокадр)

Аудио #2
Идентификатор : 2
Формат : AC-3
Формат/Информация : Audio Coding 3
Идентификатор кодека : 2000
Продолжительность : 1 ч. 38 м.
Вид битрейта : Постоянный
Битрейт : 192 Кбит/сек
Каналы : 2 канала
Расположение каналов : Front: L R
Частота : 48,0 КГц
Частота кадров : 31,250 кадров/сек (1536 SPF)
Битовая глубина : 16 бит
Метод сжатия : С потерями
Размер потока : 135 Мбайт (9%)
Выравнивание : Соединение по промежуткам
Продолжительность промежутка : 32 мс. (0,77 видеокадр)

Аудио #3
Идентификатор : 3
Формат : AC-3
Формат/Информация : Audio Coding 3
Идентификатор кодека : 2000
Продолжительность : 1 ч. 38 м.
Вид битрейта : Постоянный
Битрейт : 192 Кбит/сек
Каналы : 2 канала
Расположение каналов : Front: L R
Частота : 48,0 КГц
Частота кадров : 31,250 кадров/сек (1536 SPF)
Битовая глубина : 16 бит
Метод сжатия : С потерями
Размер потока : 135 Мбайт (9%)
Выравнивание : Соединение по промежуткам
Продолжительность промежутка : 32 мс. (0,77 видеокадр)



Скачать Волшебники.из.Вэйверли.Плэйс.в.кино.Wizards.of.Waverly.Place.The.Movie.(Лев.Л.Спиро).[2009.фэнтези.драма.комедия.приключения.семейный.WEB-DLRip].[Dub]+[Оригинал.Eng].torrent без регистрации
Золото ЗОЛОТАЯ РАЗДАЧА! СКАЧАННОЕ НЕ ЗАСЧИТЫВАЕТСЯ! Золото
Дата: Зарегистрирован   [ Тип: внешний ] Как тут cкачать?
MAGNET ссылка
MAGNET ссылка


Скачать .torrent

16 KB

Статус: проверено DHT
Скачан: торрент - 18 раз, раздача полностью - 0 раз
Размер: 1,47 GB
Оценка:  - (Голосов: 0)
Поблагодарили: 0
Поделиться ссылкой на эту раздачу с друзьями:
В контактеFacebookОдноклассникиTwitterLivejournalМой МирLiveinternet
 

 
Показать сообщения:    


Вы не можете начинать темы
Вы не можете отвечать на сообщения
Вы не можете редактировать свои сообщения
Вы не можете удалять свои сообщения
Вы не можете голосовать в опросах
Вы не можете прикреплять файлы к сообщениям
Вы можете скачивать файлы