Loading...
Error

Скачать Золото Рейна - лица одной реки / Rheingold: Gesichter eines Flusses (Петер Барделе, Лена Леонхардт) [2014, документальный, путешествия, природа, видовой, BDRemux] [1080p] [DVO] торрент без регистрации

Статистика раздачи
Размер:  15,51 GB   |    Скачан:  12 раз
Сидов:  1  [  0 KB/s  ]  
 
 
 
Автор Сообщение

Marsianka

[] 

Информация о фильме
Название: Золото Рейна - лица одной реки
Оригинальное: Rheingold: Gesichter eines Flusses
Год выхода: 2014
Жанр: документальный, путешествия, природа, видовой
Режиссер: Петер Барделе, Лена Леонхардт

О фильме:
Рейн - центр европейской души. Крупнейшая и наиболее важная река континента. На протяжении тысяч лет, на своём пути от Альп до Северного моря он формирует уникальные культурные ландшафты, в которых люди и природа взаимно влияли друг на друга. На своём пути от массива Готтхард к морю, он пересекает шесть стран: Швейцарию, Австрию, Лихтенштейн, Германию, Францию и Нидерланды. На протяжении веков, Рейн разделял немцев в Германии и Франции. На протяжении почти 70 лет, он связывает эти две страны, тем не менее, Люксембург, Бельгия и Италия также находятся под его влиянием. "Золото Рейна - Лик реки" следует по маршруту реки исключительно с высоты птичьего полёта и представляет увлекательные панорамы центральной Европы, которые раскрываются в полную силу на большом экране. С высоты наш дом уже не то же самое: сверкающий Рейн напоминает Карибский бассейн, луга в районах выглядят как Серенгети. В сопровождении голоса актера Бена Беккера и музыкальных мотивов Рихарда Вагнера открываются новые неожиданные грани Рейна.

Страна: Германия
Продолжительность: 01:30:56
Перевод: Профессиональный (двухголосый закадровый)

Файл
Кодек: MPEG-4 AVC
Качество: BDRemux 1080p
Видео: 1920х1080, 22,9 Мбит/с, 24 кадра/с
Звук: DTS, 6 каналов, 1509 Кбит/с
Общее
Уникальный идентификатор : 296665154040969693276760430223182927275 (0xDF2FA15F6DBB9FD2F62C38F5993A15AB)
Полное имя : C:ЗОЛОТО РЕЙНА.mkv
Формат : Matroska
Версия формата : Version 4 / Version 2
Размер файла : 15,5 Гбайт
Продолжительность : 1 ч. 30 м.
Режим общего битрейта : Переменный
Общий поток : 24,4 Мбит/сек
Название фильма : Rheingold: Gesichter eines Flusses (2014)
Дата кодирования : UTC 2018-01-31 02:08:01
Программа кодирования : mkvmerge v20.0.0 ('I Am The Sun') 64-bit
Библиотека кодирования : libebml v1.3.5 + libmatroska v1.4.8

Видео
Идентификатор : 1
Формат : AVC
Формат/Информация : Advanced Video Codec
Профиль формата : High@L4.1
Настройки формата : CABAC / 4 Ref Frames
Параметр CABAC формата : Да
Параметр RefFrames формата : 4 кадра
Идентификатор кодека : V_MPEG4/ISO/AVC
Продолжительность : 1 ч. 30 м.
Вид битрейта : Переменный
Битрейт : 22,9 Мбит/сек
Максимальный битрейт : 38,0 Мбит/сек
Ширина : 1920 пикселей
Высота : 1080 пикселей
Соотношение сторон : 16:9
Режим частоты кадров : Постоянный
Частота кадров : 25,000 кадров/сек
Цветовое пространство : YUV
Субдискретизация насыщенности : 4:2:0
Битовая глубина : 8 бит
Тип развёртки : MBAFF
Метод сохранения типа развёртки : Чередующиеся поля
Порядок развёртки : Верхнее поле первое
Бит/(Пиксели*Кадры) : 0.442
Размер потока : 14,6 Гбайт (94%)
Default : Да
Forced : Нет

Аудио
Идентификатор : 2
Формат : DTS
Формат/Информация : Digital Theater Systems
Идентификатор кодека : A_DTS
Продолжительность : 1 ч. 30 м.
Вид битрейта : Постоянный
Битрейт : 1509 Кбит/сек
Каналы : 6 каналов
Расположение каналов : Front: L C R, Side: L R, LFE
Частота : 48,0 КГц
Частота кадров : 93,750 кадра/сек (512 SPF)
Битовая глубина : 24 бит
Метод сжатия : С потерями
Размер потока : 982 Мбайт (6%)
Язык : Russian
Default : Да
Forced : Нет



Скачать Золото.Рейна.-.лица.одной.реки.Rheingold.Gesichter.eines.Flusses.(Петер.Барделе.Лена.Леонхардт).[2014.документальный.путешествия.природа.видовой.BDRemux].[1080p].[DVO].torrent без регистрации
Золото ЗОЛОТАЯ РАЗДАЧА! СКАЧАННОЕ НЕ ЗАСЧИТЫВАЕТСЯ! Золото
Дата: Зарегистрирован   [ Тип: внутренний ] Как тут cкачать?
MAGNET ссылка
MAGNET ссылка


Скачать .torrent

40 KB

Статус: проверено DHT
Скачан: торрент - 12 раз, раздача полностью - 1 раз
Размер: 15,51 GB
Оценка:  - (Голосов: 0)
Поблагодарили: 0
Поделиться ссылкой на эту раздачу с друзьями:
В контактеFacebookОдноклассникиTwitterLivejournalМой МирLiveinternet
 

 
Показать сообщения:    


Вы не можете начинать темы
Вы не можете отвечать на сообщения
Вы не можете редактировать свои сообщения
Вы не можете удалять свои сообщения
Вы не можете голосовать в опросах
Вы не можете прикреплять файлы к сообщениям
Вы можете скачивать файлы