Loading...
Error

Скачать Лето 42-го / Summer of '42 (Роберт Маллиган) [1971, драма, мелодрама, комедия, BDRemux] [1080р] [DVO]+[VO]+[Оригинал Eng]+[Sub Rus, Eng]x2 торрент без регистрации

Статистика раздачи
Размер:  27,08 GB   |    Скачан:  8 раз

Полного источника не было: 20 минут

 
 
 
Автор Сообщение

Marsianka

[] 

Информация о фильме
Название: Лето 42-го
Оригинальное название: Summer of '42
Год выхода: 1971
Жанр: драма, мелодрама, комедия
Режиссер: Роберт Маллиган
В ролях: Дженнифер О’Нил, Гэри Граймз, Джерри Хаузер, Оливер Конент, Кэтрин Аллентак, Кристофер Норрис, Лу Фриззелл, Роберт Маллиган, Уолтер Скотт, Морин Стейплтон

Описание: Трое пятнадцатилетних подростков приезжают на летние каникулы в Новую Англию. Двое из них интересуются любовными похождениями со сверстницами, а третий переживает настоящий взрослый роман с двадцатидвухлетней женщиной, муж которой отбыл на фронт. Юное сердце сталкивается с нешуточными страстями, которые заставляют его сделать непростой выбор между чувством и сочувствием, желанием и состраданием по отношению к молодой женщине, оставшейся в одиночестве и потому особо нуждающейся в нежности.



Страна: США
Продолжительность: 01:44:10
Перевод 1: Профессиональный (двухголосый закадровый) СВ Дубль
Перевод 2: Любительский (одноголосый закадровый) =Rider=
Субтитры: русские, английские
Оригинальная аудиодорожка: английский
Файл
Качество: BDRemux 1080р
Видео: AVC / 1920x1080 / 16:9 / 23.976 fps / 34849 kbps / High@L4.1
Аудио 1: Rus / AC3 / 48.0 KHz / 2.0 / 192 kbps / DVO / СВ Дубль
Аудио 2: Rus / AC3 / 48.0 KHz / 2.0 / 192 kbps / VO / =Rider=
Аудио 3: Eng / DTS-HD MA / 48.0 KHz / 2.0 / 1974 kbps / 24 bit (DTS Core 48.0 KHz / 2.0 / 1509kbps / 24 bit)
Общее
Уникальный идентификатор : 239271872408003166205865493696643640050 (0xB402161DC989F0A28807E364819CAAF2)
Полное имя : Summer.of.42.1971.BDRemux.1080p.mkv
Формат : Matroska
Версия формата : Version 4 / Version 2
Размер файла : 27,1 Гбайт
Продолжительность : 1 ч. 44 м.
Режим общего битрейта : Переменный
Общий поток : 37,2 Мбит/сек
Название фильма : Summer.of.42.1971.BDRemux.1080p-porvaliparus
Дата кодирования : UTC 2017-11-08 06:42:37
Программа кодирования : mkvmerge v17.0.0 ('Be Ur Friend') 64-bit
Библиотека кодирования : libebml v1.3.5 + libmatroska v1.4.8

Видео
Идентификатор : 1
Формат : AVC
Формат/Информация : Advanced Video Codec
Профиль формата : High@L4.1
Настройки формата : CABAC / 4 Ref Frames
Параметр CABAC формата : Да
Параметр RefFrames формата : 4 кадра
Идентификатор кодека : V_MPEG4/ISO/AVC
Продолжительность : 1 ч. 44 м.
Вид битрейта : Переменный
Битрейт : 34,8 Мбит/сек
Максимальный битрейт : 38,0 Мбит/сек
Ширина : 1920 пикселей
Высота : 1080 пикселей
Соотношение сторон : 16:9
Режим частоты кадров : Постоянный
Частота кадров : 23,976 (24000/1001) кадра/сек
Цветовое пространство : YUV
Субдискретизация насыщенности : 4:2:0
Битовая глубина : 8 бит
Тип развёртки : Прогрессивная
Бит/(Пиксели*Кадры) : 0.701
Размер потока : 25,4 Гбайт (94%)
Заголовок : Summer.of.42.1971.BDRemux.1080p
Default : Да
Forced : Нет

Аудио #1
Идентификатор : 2
Формат : AC-3
Формат/Информация : Audio Coding 3
Идентификатор кодека : A_AC3
Продолжительность : 1 ч. 44 м.
Вид битрейта : Постоянный
Битрейт : 192 Кбит/сек
Каналы : 2 канала
Расположение каналов : Front: L R
Частота : 48,0 КГц
Частота кадров : 31,250 кадров/сек (1536 SPF)
Битовая глубина : 16 бит
Метод сжатия : С потерями
Размер потока : 143 Мбайт (1%)
Заголовок : DVO [СВ Дубль]
Язык : Russian
Default : Да
Forced : Нет

Аудио #2
Идентификатор : 3
Формат : AC-3
Формат/Информация : Audio Coding 3
Идентификатор кодека : A_AC3
Продолжительность : 1 ч. 44 м.
Вид битрейта : Постоянный
Битрейт : 192 Кбит/сек
Каналы : 2 канала
Расположение каналов : Front: L R
Частота : 48,0 КГц
Частота кадров : 31,250 кадров/сек (1536 SPF)
Битовая глубина : 16 бит
Метод сжатия : С потерями
Размер потока : 143 Мбайт (1%)
Заголовок : VO [=Rider=]
Язык : Russian
Default : Нет
Forced : Нет

Аудио #3
Идентификатор : 4
Формат : DTS
Формат/Информация : Digital Theater Systems
Профиль формата : MA / Core
Идентификатор кодека : A_DTS
Продолжительность : 1 ч. 44 м.
Вид битрейта : Переменный / Постоянный
Битрейт : 1974 Кбит/сек / 1509 Кбит/сек
Каналы : 2 канала
Расположение каналов : Front: L R
Частота : 48,0 КГц
Частота кадров : 93,750 кадра/сек (512 SPF)
Битовая глубина : 24 бит
Метод сжатия : Без потерь / Lossy
Размер потока : 1,44 Гбайт (5%)
Язык : English
Default : Нет
Forced : Нет

Текст #1
Идентификатор : 5
Формат : UTF-8
Идентификатор кодека : S_TEXT/UTF8
Идентификатор кодека/Информация : UTF-8 Plain Text
Продолжительность : 1 ч. 42 м.
Битрейт : 79 бит/сек
ElementCount : 990
Размер потока : 59,5 Кбайт (0%)
Заголовок : А. Наумов
Язык : Russian
Default : Нет
Forced : Нет

Текст #2
Идентификатор : 6
Формат : UTF-8
Идентификатор кодека : S_TEXT/UTF8
Идентификатор кодека/Информация : UTF-8 Plain Text
Продолжительность : 1 ч. 40 м.
Битрейт : 42 бит/сек
ElementCount : 1367
Размер потока : 30,9 Кбайт (0%)
Язык : English
Default : Нет
Forced : Нет

Меню
00:00:00.000 : en:Chapter 1
00:02:52.422 : en:Chapter 2
00:05:24.950 : en:Chapter 3
00:09:01.332 : en:Chapter 4
00:11:29.230 : en:Chapter 5
00:14:03.968 : en:Chapter 6
00:17:28.506 : en:Chapter 7
00:19:33.631 : en:Chapter 8
00:24:00.314 : en:Chapter 9
00:28:49.436 : en:Chapter 10
00:31:04.613 : en:Chapter 11
00:35:41.264 : en:Chapter 12
00:41:11.302 : en:Chapter 13
00:43:00.578 : en:Chapter 14
00:47:13.456 : en:Chapter 15
00:49:37.266 : en:Chapter 16
00:53:14.566 : en:Chapter 17
00:56:58.790 : en:Chapter 18
01:03:02.278 : en:Chapter 19
01:06:06.546 : en:Chapter 20
01:10:42.113 : en:Chapter 21
01:15:37.366 : en:Chapter 22
01:18:03.095 : en:Chapter 23
01:21:09.198 : en:Chapter 24
01:25:21.325 : en:Chapter 25
01:31:45.500 : en:Chapter 26
01:35:47.325 : en:Chapter 27
01:38:52.885 : en:Chapter 28
01:43:06.013 : en:Chapter 29



Скачать Лето.42-го.Summer.of.'42.(Роберт.Маллиган).[1971.драма.мелодрама.комедия.BDRemux].[1080р].[DVO]+[VO]+[Оригинал.Eng]+[Sub.Rus.Eng]x2.torrent без регистрации
Золото ЗОЛОТАЯ РАЗДАЧА! СКАЧАННОЕ НЕ ЗАСЧИТЫВАЕТСЯ! Золото
Дата: Зарегистрирован   [ Тип: внутренний ] Как тут cкачать?
MAGNET ссылка
MAGNET ссылка


Скачать .torrent

69 KB

Статус: проверено DHT
Скачан: торрент - 8 раз, раздача полностью - 0 раз
Размер: 27,08 GB
Оценка:  - (Голосов: 0)
Поблагодарили: 0
Поделиться ссылкой на эту раздачу с друзьями:
В контактеFacebookОдноклассникиTwitterLivejournalМой МирLiveinternet
 

 
Показать сообщения:    


Вы не можете начинать темы
Вы не можете отвечать на сообщения
Вы не можете редактировать свои сообщения
Вы не можете удалять свои сообщения
Вы не можете голосовать в опросах
Вы не можете прикреплять файлы к сообщениям
Вы можете скачивать файлы