Loading...
Error

Скачать Через Вселенную / Across the Universe (Джули Тэймор) [2007, мелодрама, мюзикл, фэнтези, драма, UHD BDRemux] [2160p] [4K] [MVO]x2+[Eng]x2+[Sub Rus, Eng]x2 торрент без регистрации

Статистика раздачи
Размер:  53,06 GB   |    Скачан:  16 раз
Сидов:  2  [  0 KB/s  ]  
 
 
 
Автор Сообщение

Marsianka

[] 

Информация о фильме
Название: Через Вселенную
Оригинальное название: Across the Universe
Год выхода: 2007
Жанр: мелодрама, мюзикл, фэнтези, драма
Режиссер: Джули Тэймор
В ролях: Ивэн Рэйчел Вуд, Джим Стёрджесс, Джо Андерсон, Дана Фукс, Сальма Хайек, Т.В. Карпио, Мартин Лютер, Боно, Эдди Иззард, Джо Кокер, Спенсер Лифф, Лиза Хогг, Кэрол Вудс, Николас Ламли, Майкл Райан, Анджела Монси, Логан Маршалл-Грин, Гарри Ленникс

О фильме:
Фильм-мюзикл, основанный на 34 композициях группы «Битлз» 1963—1969 годов в современном исполнении. История любви Джуда (Джим Стерджесс) и Люси (Ивэн Рэйчел Вуд), которые встретились и полюбили друг друга в Америке образца 1968 года. Судьба подстраивает козни главным героям, которые вместе с несколькими друзьями и музыкантами оказываются втянутыми в зарождающиеся движения пацифистов и контркультуры. В роли проводников главных героев по миру шестидесятых выступают некие «Доктор Роберт» (Боно) и «Мистер Кайт» (Эдди Иззард). Паре предстоит многое пережить, чтобы в конце-концов убедиться в одной непреложной истине: «All you need is love»…



Страна: США, Великобритания
Студия: Gross Entertainment, Revolution Studios
Продолжительность: 02:13:18
Перевод: Профессиональный многоголосый закадровый

Файл
Кодек: H.265
Качество: UHD BDRemux 2160p
Видео: MPEG-H HEVC HDR Video, 3840x2160, 49.4 Mbit/s, 23.976 fps

Русский (DTS, 6 ch, 1536 Кбит/с) / Профессиональный многоголосый
Русский (AC3, 6 ch, 448 Кбит/с) / Профессиональный многоголосый
Английский (TrueHD+Atmos, 8 ch, 7956 Кбит/с)
Английский (AC3, 6 ch, 640 Кбит/с)
Субтитры: Русские (форсированные, полные), английские
Семпл
General
Unique ID : 325781154842853152747241031504310725783 (0xF5172B0B6998077FE4DE046EEEEA6C97)
Complete name : D:uTorrentCherez.vselennuju.2007.BDRemux.2160p.4K.HDR.HEVC.MediaClub.mkv
Format : Matroska
Format version : Version 4 / Version 2
File size : 53.1 GiB
Duration : 2 h 13 min
Overall bit rate mode : Variable
Overall bit rate : 57.0 Mb/s
Encoded date : UTC 2018-02-01 03:26:20
Writing application : mkvmerge v19.0.0 ('Brave Captain') 64-bit
Writing library : libebml v1.3.5 + libmatroska v1.4.8
Cover : Yes
Attachments : cover.png

Video
ID : 1
Format : HEVC
Format/Info : High Efficiency Video Coding
Format profile : Main 10@L5.1@High
Codec ID : V_MPEGH/ISO/HEVC
Duration : 2 h 13 min
Bit rate : 49.4 Mb/s
Width : 3 840 pixels
Height : 2 160 pixels
Display aspect ratio : 16:9
Frame rate mode : Constant
Frame rate : 23.976 (24000/1001) FPS
Color space : YUV
Chroma subsampling : 4:2:0 (Type 2)
Bit depth : 10 bits
Bits/(Pixel*Frame) : 0.248
Stream size : 46.0 GiB (87%)
Title : 4K, HEVC, HDR | Blu-Ray Remux by Silverok
Default : Yes
Forced : No
Color range : Limited
Color primaries : BT.2020
Transfer characteristics : PQ
Matrix coefficients : BT.2020 non-constant
Mastering display color primaries : Display P3
Mastering display luminance : min: 0.0050 cd/m2, max: 4000 cd/m2
Maximum Content Light Level : 466 cd/m2
Maximum Frame-Average Light Level : 254 cd/m2

Audio #1
ID : 2
Format : DTS
Format/Info : Digital Theater Systems
Codec ID : A_DTS
Duration : 2 h 13 min
Bit rate mode : Constant
Bit rate : 1 510 kb/s
Channel(s) : 6 channels
Channel positions : Front: L C R, Side: L R, LFE
Sampling rate : 48.0 kHz
Frame rate : 93.750 FPS (512 SPF)
Bit depth : 24 bits
Compression mode : Lossy
Stream size : 1.41 GiB (3%)
Title : Профессиональный многоголосый
Language : Russian
Default : Yes
Forced : No

Audio #2
ID : 3
Format : AC-3
Format/Info : Audio Coding 3
Codec ID : A_AC3
Duration : 2 h 13 min
Bit rate mode : Constant
Bit rate : 448 kb/s
Channel(s) : 6 channels
Channel positions : Front: L C R, Side: L R, LFE
Sampling rate : 48.0 kHz
Frame rate : 31.250 FPS (1536 SPF)
Bit depth : 16 bits
Compression mode : Lossy
Stream size : 427 MiB (1%)
Title : Профессиональный многоголосый
Language : Russian
Service kind : Complete Main
Default : No
Forced : No

Audio #3
ID : 4
Format : TrueHD
Format profile : TrueHD+Atmos / TrueHD
Codec ID : A_TRUEHD
Duration : 2 h 13 min
Bit rate mode : Variable
Bit rate : 4 947 kb/s
Maximum bit rate : 7 956 kb/s
Channel(s) : Object Based / 8 channels
Channel positions : Object Based / Front: L C R, Side: L R, Back: L R, LFE
Sampling rate : / 48.0 kHz
Frame rate : 1 200.000 FPS (40 SPF)
Compression mode : Lossless
Stream size : 4.61 GiB (9%)
Language : English
Default : No
Forced : No

Audio #4
ID : 5
Format : AC-3
Format/Info : Audio Coding 3
Codec ID : A_AC3
Duration : 2 h 13 min
Bit rate mode : Constant
Bit rate : 640 kb/s
Channel(s) : 6 channels
Channel positions : Front: L C R, Side: L R, LFE
Sampling rate : 48.0 kHz
Frame rate : 31.250 FPS (1536 SPF)
Bit depth : 16 bits
Compression mode : Lossy
Stream size : 610 MiB (1%)
Language : English
Service kind : Complete Main
Default : No
Forced : No

Text #1
ID : 6
Format : UTF-8
Codec ID : S_TEXT/UTF8
Codec ID/Info : UTF-8 Plain Text
Duration : 2 h 4 min
Bit rate : 32 b/s
Count of elements : 547
Stream size : 29.9 KiB (0%)
Language : Russian
Default : Yes
Forced : Yes

Text #2
ID : 7
Format : UTF-8
Codec ID : S_TEXT/UTF8
Codec ID/Info : UTF-8 Plain Text
Duration : 2 h 4 min
Bit rate : 85 b/s
Count of elements : 1322
Stream size : 78.5 KiB (0%)
Language : Russian
Default : No
Forced : No

Text #3
ID : 8
Format : UTF-8
Codec ID : S_TEXT/UTF8
Codec ID/Info : UTF-8 Plain Text
Duration : 2 h 7 min
Bit rate : 45 b/s
Count of elements : 1301
Stream size : 42.4 KiB (0%)
Language : English
Default : No
Forced : No

Menu
00:00:00.000 : en:Girl
00:02:20.098 : en:Hold Me Tight
00:04:27.558 : en:All My Loving
00:08:49.237 : en:I Want to Hold Your Hand
00:17:39.183 : en:With a Little Help From My Friends
00:20:35.817 : en:It Won't Be Long
00:23:38.375 : en:I've Just Seen a Face
00:32:37.664 : en:Let It Be
00:36:40.156 : en:Come Together
00:42:12.196 : en:Why Don't We Do It in the Road?
00:46:49.598 : en:If I Fell
00:53:01.386 : en:I Want You (She's So Heavy)
00:57:19.185 : en:Dear Prudence
01:01:17.090 : en:I Am the Walrus
01:09:01.262 : en:Being for the Benefit of Mr. Kite
01:13:00.918 : en:Because
01:16:14.695 : en:Something
01:20:24.986 : en:Oh! Darling
01:24:17.594 : en:Strawberry Fields Forever
01:29:31.491 : en:Revolution
01:34:12.605 : en:While My Guitar Gently Weeps
01:38:44.877 : en:Across the Universe
01:40:31.608 : en:Helter Skelter
01:45:32.284 : en:Happiness Is a Warm Gun
01:49:37.696 : en:A Day in the Life
01:53:41.606 : en:Blackbird
01:55:12.155 : en:Hey Jude
01:59:14.605 : en:Don't Let Me Down
02:02:19.498 : en:All You Need Is Love
02:05:41.408 : en:Lucy in the Sky with Diamonds
Релиз от: | Silverok



Скачать Через.Вселенную.Across.the.Universe.(Джули.Тэймор).[2007.мелодрама.мюзикл.фэнтези.драма.UHD.BDRemux].[2160p].[4K].[MVO]x2+[Eng]x2+[Sub.Rus.Eng]x2.torrent без регистрации
Золото ЗОЛОТАЯ РАЗДАЧА! СКАЧАННОЕ НЕ ЗАСЧИТЫВАЕТСЯ! Золото
Дата: Зарегистрирован   [ Тип: внешний ] Как тут cкачать?
MAGNET ссылка
MAGNET ссылка


Скачать .torrent

134 KB

Статус: проверено DHT
Скачан: торрент - 16 раз, раздача полностью - 0 раз
Размер: 53,06 GB
Оценка:  - (Голосов: 0)
Поблагодарили: 0
Поделиться ссылкой на эту раздачу с друзьями:
В контактеFacebookОдноклассникиTwitterLivejournalМой МирLiveinternet
 

 
Показать сообщения:    


Вы не можете начинать темы
Вы не можете отвечать на сообщения
Вы не можете редактировать свои сообщения
Вы не можете удалять свои сообщения
Вы не можете голосовать в опросах
Вы не можете прикреплять файлы к сообщениям
Вы можете скачивать файлы