Loading...
Error

Скачать Опасные игры / Snake Eyes (Абель Феррара) [1993, драма, BDRip] [720p] [DVO]x2+[AVO]+[Eng]+[Sub Eng] торрент без регистрации

Статистика раздачи
Размер:  9,04 GB   |    Скачан:  15 раз
Сидов:  1  [  0 KB/s  ]  
 
 
 
Автор Сообщение

Marsianka

[] 

Информация о фильме
Название: Опасные игры
Оригинальное название: Snake Eyes / Dangerous Game
Год выхода: 1993
Жанр: драма
Режиссер: Абель Феррара
В ролях: Харви Кейтель, Мадонна, Джеймс Руссо, Нэнси Феррара, Райлли Мёрфи, Виктор Арго, Леонард Л. Томас, Кристина Фалтон, Хэзер Брэкен, Гленн Пламмер

О фильме:
Известный режиссер Эдди Израэль начинает съемки главного проекта своей жизни. Его новый фильм - о сложных отношениях супругов. Действительность постоянно перемешивается с сюжетом сценария, в котором имеется и криминальная линия. Тяжелая атмосфера на съемочной площадке, несхожесть характеров и темпераментов создает чудовищную смесь человеческих отношений, грозящих неминуемой развязкой...



Страна: Италия, США
Продолжительность: 01:48:34
Перевод: Профессиональный (двухголосый закадровый) + Авторский (одноголосый закадровый)

Рип от CtrlHD

Файл
Формат: MKV
Источник: Snake Eyes 1993 1080p Blu-ray AVC DTS-HD MA 2 0-UNRELiABLE
Видео: 1280x694 at 23.976 fps, x264@L4.1, ~9494 kbps avg
Aудио#1: Russian: 48 kHz, AC3, 2/0 (L,R) ch, ~192 kbps avg |Двухголосый закадровый, Инис/Союз Видео|
Аудио#2: Russian: 48 kHz, AC3, 2/0 (L,R) ch, ~192 kbps avg |Двухголосый закадровый|
Аудио#3: Russian: 48 kHz/24-bit, DTS 2.0, ~1509 kbps avg |Одноголосый закадровый, С.Визгунов|
Аудио#4: English: 48 kHz/24-bit, FLAC 2.0, ~524 kbps avg
Субтитры: английские
Сэмпл

Релиз от:
• Релиз доступен благодаря проекту Сборка. Спонсоры nekazz, gelom, barvinok13, Dervish, exact, Luka69
• Английские субтитры взяты из сети, на диске их не было
• Сохранены оригинальные чаптеры как на Blu-ray
• За дорожки спасибо Spiellberg
General
Unique ID : 198065748196305424351457008249455393449 (0x95021356A589A84193BA90BB8C523AA9)
Complete name : Snake.Eyes.1993.720p.BluRay.3xRus.Eng.HDCLUB-CtrlHD.mkv
Format : Matroska
Format version : Version 4 / Version 2
File size : 9.04 GiB
Duration : 1 h 48 min
Overall bit rate mode : Variable
Overall bit rate : 11.9 Mb/s
Encoded date : UTC 2016-12-17 08:39:18
Writing application : mkvmerge v9.6.0 ('Slave To Your Mind') 64bit
Writing library : libebml v1.3.4 + libmatroska v1.4.5
Cover : Yes
Attachments : cover.jpg

Video
ID : 1
Format : AVC
Format/Info : Advanced Video Codec
Format profile : High@L4.1
Format settings : CABAC / 9 Ref Frames
Format settings, CABAC : Yes
Format settings, ReFrames : 9 frames
Codec ID : V_MPEG4/ISO/AVC
Duration : 1 h 48 min
Bit rate : 9 494 kb/s
Width : 1 280 pixels
Height : 694 pixels
Display aspect ratio : 1.85:1
Frame rate mode : Constant
Frame rate : 23.976 (24000/1001) FPS
Color space : YUV
Chroma subsampling : 4:2:0
Bit depth : 8 bits
Scan type : Progressive
Bits/(Pixel*Frame) : 0.446
Stream size : 7.20 GiB (80%)
Writing library : x264 core 148 r2705kMod 3f5ed56
Encoding settings : cabac=1 / ref=9 / deblock=1:-3:-3 / analyse=0x3:0x133 / me=umh / subme=10 / psy=1 / fade_compensate=0.00 / psy_rd=1.10:0.00 / mixed_ref=1 / me_range=32 / chroma_me=1 / trellis=2 / 8x8dct=1 / cqm=0 / deadzone=21,11 / fast_pskip=0 / chroma_qp_offset=-2 / threads=6 / lookahead_threads=1 / sliced_threads=0 / nr=0 / decimate=0 / interlaced=0 / bluray_compat=0 / constrained_intra=0 / fgo=0 / bframes=11 / b_pyramid=2 / b_adapt=2 / b_bias=0 / direct=3 / weightb=1 / open_gop=0 / weightp=2 / keyint=250 / keyint_min=23 / scenecut=40 / intra_refresh=0 / rc_lookahead=60 / rc=crf / mbtree=0 / crf=17.0000 / qcomp=0.60 / qpmin=0 / qpmax=69 / qpstep=4 / vbv_maxrate=62500 / vbv_bufsize=78125 / crf_max=0.0 / nal_hrd=none / filler=0 / ip_ratio=1.30 / pb_ratio=1.20 / aq=3:0.60
Language : English
Default : Yes
Forced : No

Audio #1
ID : 2
Format : AC-3
Format/Info : Audio Coding 3
Codec ID : A_AC3
Duration : 1 h 48 min
Bit rate mode : Constant
Bit rate : 192 kb/s
Channel(s) : 2 channels
Channel positions : Front: L R
Sampling rate : 48.0 kHz
Frame rate : 31.250 FPS (1536 SPF)
Bit depth : 16 bits
Compression mode : Lossy
Stream size : 149 MiB (2%)
Title : Двухголосый закадровый, Инис/Союз Видео
Language : Russian
Service kind : Complete Main
Default : Yes
Forced : No

Audio #2
ID : 3
Format : AC-3
Format/Info : Audio Coding 3
Codec ID : A_AC3
Duration : 1 h 48 min
Bit rate mode : Constant
Bit rate : 192 kb/s
Channel(s) : 2 channels
Channel positions : Front: L R
Sampling rate : 48.0 kHz
Frame rate : 31.250 FPS (1536 SPF)
Bit depth : 16 bits
Compression mode : Lossy
Stream size : 149 MiB (2%)
Title : Двухголосый закадровый
Language : Russian
Service kind : Complete Main
Default : No
Forced : No

Audio #3
ID : 4
Format : DTS
Format/Info : Digital Theater Systems
Codec ID : A_DTS
Duration : 1 h 48 min
Bit rate mode : Constant
Bit rate : 1 509 kb/s
Channel(s) : 2 channels
Channel positions : Front: L R
Sampling rate : 48.0 kHz
Frame rate : 93.750 FPS (512 SPF)
Bit depth : 24 bits
Compression mode : Lossy
Stream size : 1.14 GiB (13%)
Title : Одноголосый закадровый, С.Визгунов
Language : Russian
Default : No
Forced : No

Audio #4
ID : 5
Format : FLAC
Format/Info : Free Lossless Audio Codec
Codec ID : A_FLAC
Duration : 1 h 48 min
Bit rate mode : Variable
Bit rate : 524 kb/s
Channel(s) : 2 channels
Channel positions : Front: L R
Sampling rate : 48.0 kHz
Frame rate : 11.719 FPS (4096 SPF)
Bit depth : 16 bits
Stream size : 407 MiB (4%)
Writing library : libFLAC 1.2.1 (UTC 2007-09-17)
Language : English
Default : No
Forced : No

Text
ID : 6
Format : UTF-8
Codec ID : S_TEXT/UTF8
Codec ID/Info : UTF-8 Plain Text
Duration : 1 h 42 min
Bit rate : 59 b/s
Count of elements : 1259
Stream size : 45.0 KiB (0%)
Language : English
Default : No
Forced : No

Menu
00:00:00.000 : en:00:00:00.000
00:00:10.927 : en:00:00:10.927
00:16:33.951 : en:00:16:33.951
00:28:41.219 : en:00:28:41.219
00:42:28.087 : en:00:42:28.087
00:54:37.148 : en:00:54:37.148
01:08:40.032 : en:01:08:40.032
01:22:52.717 : en:01:22:52.717
01:35:46.866 : en:01:35:46.866

Source vs Encode





Скачать Опасные.игры.Snake.Eyes.(Абель.Феррара).[1993.драма.BDRip].[720p].[DVO]x2+[AVO]+[Eng]+[Sub.Eng].torrent без регистрации
Золото ЗОЛОТАЯ РАЗДАЧА! СКАЧАННОЕ НЕ ЗАСЧИТЫВАЕТСЯ! Золото
Дата: Зарегистрирован   [ Тип: внутренний ] Как тут cкачать?
MAGNET ссылка
MAGNET ссылка


Скачать .torrent

12 KB

Статус: проверено DHT
Скачан: торрент - 15 раз, раздача полностью - 0 раз
Размер: 9,04 GB
Оценка:  - (Голосов: 0)
Поблагодарили: 0
Поделиться ссылкой на эту раздачу с друзьями:
В контактеFacebookОдноклассникиTwitterLivejournalМой МирLiveinternet
 

 
Показать сообщения:    


Вы не можете начинать темы
Вы не можете отвечать на сообщения
Вы не можете редактировать свои сообщения
Вы не можете удалять свои сообщения
Вы не можете голосовать в опросах
Вы не можете прикреплять файлы к сообщениям
Вы можете скачивать файлы