Loading...
Error

Скачать Вижу лишь тебя / All I See Is You (Марк Форстер) [2016, драма, детектив, HDRip-AVC] [Dub (лицензия iTunes)] торрент без регистрации

Статистика раздачи
Размер:  2,74 GB   |    Скачан:  34 раза
Сидов:  1  [  0 KB/s  ]  
 
 
 
Автор Сообщение

МихаНЕзатор

[] 

Год выпуска: 2016
Страна: Таиланд, США
Жанр: драма, детектив
Режиссер: Марк Форстер

В ролях:

Блейк Лайвли (Gina), Джейсон Кларк (James), Ивонн Страховски (Karen), Ана О’Райли (Carla), Микель Фернандес (Ramon), Хави Санчес (Luca), Уэс Чэтэм (Daniel), Дэнни Хьюстон (Doctor Hughes), Кэйтлин Орем (Lucy), Стэйси Ватанапан (Jill), Сиринья Бишоп (Anna), Бонни З. Хатчинсон (Realtor)

Описание: Джина ослепла в детстве в результате несчастного случая. Однако слепота не помешала ей выйти замуж и быть счастливой в браке. На очередном приеме у офтальмолога они с мужем узнают, что можно использовать новые методы лечения, и есть большая вероятность, что она прозреет. Любящий муж оплачивает операцию, проходит месяц, бинты сняты, и перед Джиной распахивается мир со всеми красками бытия. Девушка стремится открыть для себя то, чего раньше была лишена и что теперь кажется таким доступным. В том числе и отношения с мужчинами. Пробудившаяся сексуальность не радует ее мужа Джеймса, готового на что угодно, только бы она по-прежнему целиком и полностью зависела от него, видела бы лишь его...

Мировая премьера: 14 сентября 2016

Релиз от:

Продолжительность: 01:49:55
Перевод: Дубляж - [Лицензия / iTunes]

Качество: HDRip-AVC
Формат: MKV
Видео кодек: AVC
Аудио кодек: AC3
Видео: AVC, 1024x428 (2.40:1), 2803 kbps, 23,976 fps, 0,267 bpp
Аудио №1: AC3 / 5.1 / 48 kHz / 384 kbps / русский
Аудио №2: AC3 / 5.1 / 48 kHz / 384 kbps / английский
Навигация по главам: есть

General
Unique ID : 338232723268421490616717840304161289754 (0xFE7540C40BDB95DC9160384A5ADDF61A)
Complete name : D:videoРаздачиВижу лишь тебя.2O16.HDRip(AVC) by WSM.mkv
Format : Matroska
Format version : Version 4 / Version 2
File size : 2.74 GiB
Duration : 1 h 49 min
Overall bit rate : 3 572 kb/s
Movie name : Вижу лишь тебя.2O16.HDRip(AVC) by WSM
Encoded date : UTC 2018-02-04 07:05:52
Writing application : mkvmerge v20.0.0 ('I Am The Sun') 64-bit
Writing library : libebml v1.3.5 + libmatroska v1.4.8

Video
ID : 1
Format : AVC
Format/Info : Advanced Video Codec
Format profile : High@L4.1
Format settings, CABAC : Yes
Format settings, ReFrames : 10 frames
Codec ID : V_MPEG4/ISO/AVC
Duration : 1 h 49 min
Bit rate : 2 803 kb/s
Width : 1 024 pixels
Height : 428 pixels
Display aspect ratio : 2.40:1
Frame rate mode : Constant
Frame rate : 23.976 (24000/1001) FPS
Color space : YUV
Chroma subsampling : 4:2:0
Bit depth : 8 bits
Scan type : Progressive
Bits/(Pixel*Frame) : 0.267
Stream size : 2.15 GiB (78%)
Writing library : x264 core 152 r2851 ba24899
Encoding settings : cabac=1 / ref=10 / deblock=1:-3:-3 / analyse=0x3:0x133 / me=umh / subme=10 / psy=0 / mixed_ref=1 / me_range=48 / chroma_me=1 / trellis=2 / 8x8dct=1 / cqm=0 / deadzone=21,11 / fast_pskip=0 / chroma_qp_offset=0 / threads=6 / lookahead_threads=1 / sliced_threads=0 / nr=0 / decimate=0 / interlaced=0 / bluray_compat=0 / constrained_intra=0 / bframes=5 / b_pyramid=2 / b_adapt=2 / b_bias=0 / direct=3 / weightb=1 / open_gop=0 / weightp=2 / keyint=250 / keyint_min=23 / scenecut=40 / intra_refresh=0 / rc=2pass / mbtree=0 / bitrate=2803 / ratetol=1.0 / qcomp=0.60 / qpmin=10 / qpmax=51 / qpstep=4 / cplxblur=20.0 / qblur=0.5 / ip_ratio=1.40 / pb_ratio=1.30 / aq=1:1.00
Language : English
Default : Yes
Forced : No

Audio #1
ID : 2
Format : AC-3
Format/Info : Audio Coding 3
Mode extension : CM (complete main)
Format settings, Endianness : Big
Codec ID : A_AC3
Duration : 1 h 49 min
Bit rate mode : Constant
Bit rate : 384 kb/s
Channel(s) : 6 channels
Channel positions : Front: L C R, Side: L R, LFE
Sampling rate : 48.0 kHz
Frame rate : 31.250 FPS (1536 spf)
Compression mode : Lossy
Stream size : 302 MiB (11%)
Language : Russian
Default : Yes
Forced : No

Audio #2
ID : 3
Format : AC-3
Format/Info : Audio Coding 3
Mode extension : CM (complete main)
Format settings, Endianness : Big
Codec ID : A_AC3
Duration : 1 h 49 min
Bit rate mode : Constant
Bit rate : 384 kb/s
Channel(s) : 6 channels
Channel positions : Front: L C R, Side: L R, LFE
Sampling rate : 48.0 kHz
Frame rate : 31.250 FPS (1536 spf)
Compression mode : Lossy
Stream size : 302 MiB (11%)
Language : English
Default : No
Forced : No

Menu
00:00:00.000 : en:00:00:00.000
00:05:16.066 : en:00:05:16.066
00:10:05.647 : en:00:10:05.647
00:14:42.131 : en:00:14:42.131
00:19:11.859 : en:00:19:11.859
00:23:30.367 : en:00:23:30.367
00:30:42.507 : en:00:30:42.507
00:38:01.488 : en:00:38:01.488
00:41:29.237 : en:00:41:29.237
00:46:59.025 : en:00:46:59.025
00:52:29.980 : en:00:52:29.980
00:57:11.386 : en:00:57:11.386
01:02:43.301 : en:01:02:43.301
01:07:55.822 : en:01:07:55.822
01:13:51.594 : en:01:13:51.594
01:16:58.197 : en:01:16:58.197
01:21:53.158 : en:01:21:53.158
01:27:12.144 : en:01:27:12.144
01:35:52.914 : en:01:35:52.914
01:41:26.122 : en:01:41:26.122



Скачать Вижу.лишь.тебя.All.I.See.Is.You.(Марк.Форстер).[2016.драма.детектив.HDRip-AVC].[Dub.(лицензия.iTunes)].torrent без регистрации
Золото ЗОЛОТАЯ РАЗДАЧА! СКАЧАННОЕ НЕ ЗАСЧИТЫВАЕТСЯ! Золото
Дата: Зарегистрирован   [ Тип: внутренний ] Как тут cкачать?
MAGNET ссылка
MAGNET ссылка


Скачать .torrent

15 KB

Статус: проверено DHT
Скачан: торрент - 34 раз, раздача полностью - 67 раз
Размер: 2,74 GB
Оценка:  - (Голосов: 0)
Поблагодарили: 2
Поделиться ссылкой на эту раздачу с друзьями:
В контактеFacebookОдноклассникиTwitterLivejournalМой МирLiveinternet
 

 
Показать сообщения:    


Вы не можете начинать темы
Вы не можете отвечать на сообщения
Вы не можете редактировать свои сообщения
Вы не можете удалять свои сообщения
Вы не можете голосовать в опросах
Вы не можете прикреплять файлы к сообщениям
Вы можете скачивать файлы