Loading...
Error

Скачать Безбашенные / Renegades (Стивен Куэйл) [2017, боевик, триллер, BDRip-AVC] [Dub (лицензия iTunes)]+[Eng]+[Sub Eng] торрент без регистрации

Статистика раздачи
Размер:  1,87 GB   |    Скачан:  94 раза
Сидов:  1  [  0 KB/s  ]  
 
 
 
Автор Сообщение

МихаНЕзатор

[] 

Безбашенные / Renegades
«5 морских котиков. $ 300 миллионов золотом. 1 невыполнимая миссия»


Год выпуска: 2017
Страна: Франция, Германия
Производство: Belga Productions, CB Films, Canal+, DCS, EuropaCorp, Studio Babelsberg
Жанр: Боевик, триллер
Режиссёр: Стивен Куэйл

В ролях: Дж.К. Симмонс, Сильвия Хукс, Салливан Степлтон, Юэн Бремнер, Клеменс Шик, Диармед Мёрта, Чарли Бьюли, Димитрий Леонидас, Славко Собин, Джошуа Генри

Описание: Действие сюжета разворачивается в 1995 году во время войны в Боснии. Пятеро американских пехотинцев из отряда «Морские котики» находятся на спецзадании, когда узнают, что на месте местного озера ранее существовало немецкое поселение. Однако жители его затопили вместе с золотыми слитками стоимостью примерно 300 миллионов долларов. «Морские котики» хотят помочь боснийцам, поэтому собираются незаконно и без поддержки кого-либо достать эти сокровища со дна для них. Таким образом, они наживают себе могущественных врагов среди «охотников за головами», которые хотят убить пехотинцев и завладеть золотом, и у друзей есть лишь 10 часов на выполнение этого опасного задания.

Дата премьеры (мир): 1 сентября 2017
Дата премьеры (РФ): 5 октября 2017, «MEGOGO Distribution»



Продолжительность: 01:45:57
Перевод: Дублированный | iTunes
Субтитры: Английские
Реклама: Отсутствует

Качество: BDRip-AVC
Формат: MKV
Видео кодек: MPEG-4 AVC
Аудио кодек: AC3
Видео: 1024x428 (2.40:1), 24,000 fps, x264 ~1 803 kbps avg, 0.161 bit/pixel
Аудио #1: 48 kHz, AC3 Dolby Digital, 3/2 (L,C,R,l,r) + LFE ch, ~384.00 kbps avg | RUS (iTunes)
Аудио #2: 48 kHz, AC3 Dolby Digital, 3/2 (L,C,R,l,r) + LFE ch, ~448.00 kbps avg | ENG

АНОНСЫ ПОПУЛЯРНЫХ РАЗДАЧ


Торрент обновлён, улучшен видеоряд!

Общее
Уникальный идентификатор : 243413920859868958883865254839909795324 (0xB71FD0DF3F209B38B18C780F21AEC5FC)
Полное имя : E:OlLanDGroupRenegades.2017.BDRip(AVC).OlLanDGroup.mkv
Формат : Matroska
Версия формата : Version 2
Размер файла : 1,87 Гбайт
Продолжительность : 1 ч. 45 м.
Общий поток : 2521 Кбит/сек
Название фильма : Renegades.2017 #TorpedoUK#
Дата кодирования : UTC 2018-02-09 08:12:30
Программа кодирования : mkvmerge v7.8.0 ('River Man') 32bit built on Apr 3 2015 12:11:22
Библиотека кодирования : libebml v1.3.1 + libmatroska v1.4.2

Видео
Идентификатор : 1
Формат : AVC
Формат/Информация : Advanced Video Codec
Профиль формата : High@L4.1
Параметр CABAC формата : Да
Параметр ReFrames формата : 10 кадров
Идентификатор кодека : V_MPEG4/ISO/AVC
Продолжительность : 1 ч. 45 м.
Битрейт : 1691 Кбит/сек
Ширина : 1024 пикселя
Высота : 428 пикселей
Соотношение сторон : 2,40:1
Режим частоты кадров : Постоянный
Частота кадров : 24,000 кадра/сек
Цветовое пространство : YUV
Субдискретизация насыщенности : 4:2:0
Битовая глубина : 8 бит
Тип развёртки : Прогрессивная
Бит/(Пиксели*Кадры) : 0.161
Размер потока : 1,21 Гбайт (65%)
Библиотека кодирования : x264 core 146 r2538 121396c
Настройки программы : cabac=1 / ref=10 / deblock=1:-3:-3 / analyse=0x3:0x133 / me=umh / subme=11 / psy=1 / psy_rd=1.00:0.05 / mixed_ref=1 / me_range=48 / chroma_me=1 / trellis=2 / 8x8dct=1 / cqm=0 / deadzone=21,11 / fast_pskip=1 / chroma_qp_offset=-3 / threads=6 / lookahead_threads=1 / sliced_threads=0 / nr=0 / decimate=1 / interlaced=0 / bluray_compat=0 / constrained_intra=0 / bframes=10 / b_pyramid=2 / b_adapt=2 / b_bias=0 / direct=3 / weightb=1 / open_gop=0 / weightp=2 / keyint=240 / keyint_min=24 / scenecut=40 / intra_refresh=0 / rc_lookahead=40 / rc=2pass / mbtree=0 / bitrate=1691 / ratetol=1.0 / qcomp=0.60 / qpmin=0 / qpmax=69 / qpstep=4 / cplxblur=20.0 / qblur=0.5 / vbv_maxrate=50000 / vbv_bufsize=62500 / nal_hrd=none / filler=0 / ip_ratio=1.40 / pb_ratio=1.30 / aq=1:1.00
Язык : English
Default : Да
Forced : Нет

Аудио #1
Идентификатор : 2
Формат : AC-3
Формат/Информация : Audio Coding 3
Расширение режима : CM (complete main)
Параметр Endianness формата : Big
Идентификатор кодека : A_AC3
Продолжительность : 1 ч. 45 м.
Вид битрейта : Постоянный
Битрейт : 384 Кбит/сек
Каналы : 6 каналов
Расположение каналов : Front: L C R, Side: L R, LFE
Частота : 48,0 КГц
Частота кадров : 31,250 кадров/сек (1536 spf)
Битовая глубина : 16 бит
Метод сжатия : С потерями
Размер потока : 291 Мбайт (15%)
Заголовок : iTunes
Язык : Russian
Default : Да
Forced : Нет

Аудио #2
Идентификатор : 3
Формат : AC-3
Формат/Информация : Audio Coding 3
Расширение режима : CM (complete main)
Параметр Endianness формата : Big
Идентификатор кодека : A_AC3
Продолжительность : 1 ч. 45 м.
Вид битрейта : Постоянный
Битрейт : 448 Кбит/сек
Каналы : 6 каналов
Расположение каналов : Front: L C R, Side: L R, LFE
Частота : 48,0 КГц
Частота кадров : 31,250 кадров/сек (1536 spf)
Битовая глубина : 16 бит
Метод сжатия : С потерями
Размер потока : 339 Мбайт (18%)
Заголовок : Original
Язык : English
Default : Нет
Forced : Нет

Текст
Идентификатор : 4
Формат : UTF-8
Идентификатор кодека : S_TEXT/UTF8
Идентификатор кодека/Информация : UTF-8 Plain Text
Заголовок : Full
Язык : English
Default : Нет
Forced : Нет

Меню
00:00:00.000 : en:Chapter 1
00:00:49.500 : en:Chapter 2
00:08:55.291 : en:Chapter 3
00:18:57.291 : en:Chapter 4
00:25:43.458 : en:Chapter 5
00:34:06.291 : en:Chapter 6
00:45:40.208 : en:Chapter 7
00:51:21.666 : en:Chapter 8
00:59:01.416 : en:Chapter 9
01:08:51.208 : en:Chapter 10
01:15:51.875 : en:Chapter 11
01:25:10.750 : en:Chapter 12
01:36:09.875 : en:Chapter 13



Скачать Безбашенные.Renegades.(Стивен.Куэйл).[2017.боевик.триллер.BDRip-AVC].[Dub.(лицензия.iTunes)]+[Eng]+[Sub.Eng].torrent без регистрации
Золото ЗОЛОТАЯ РАЗДАЧА! СКАЧАННОЕ НЕ ЗАСЧИТЫВАЕТСЯ! Золото
Дата: Зарегистрирован   [ Тип: внутренний ] Как тут cкачать?
MAGNET ссылка
MAGNET ссылка


Скачать .torrent

20 KB

Статус: проверено DHT
Скачан: торрент - 94 раз, раздача полностью - 49 раз
Размер: 1,87 GB
Оценка:  - (Голосов: 0)
Поблагодарили: 7
Поделиться ссылкой на эту раздачу с друзьями:
В контактеFacebookОдноклассникиTwitterLivejournalМой МирLiveinternet
 

 
Показать сообщения:    


Вы не можете начинать темы
Вы не можете отвечать на сообщения
Вы не можете редактировать свои сообщения
Вы не можете удалять свои сообщения
Вы не можете голосовать в опросах
Вы не можете прикреплять файлы к сообщениям
Вы можете скачивать файлы