Loading...
Error

Скачать Встречное расследование / Contre enquete (Франк Манкусо) [2007, криминал, драма, HDTVRip] [720p] [Dub]+[French] торрент без регистрации

Статистика раздачи
Размер:  4,62 GB   |    Скачан:  22 раза
Сидов:  1  [  0 KB/s  ]  
 
 
 
Автор Сообщение

Marsianka

[] 

Информация о фильме
Название: Встречное расследование
Оригинальное название: Contre enquete
Год выхода: 2007
Жанр: криминал, драма
Режиссер: Франк Манкусо /Franck Mancuso/
В ролях: Жан Дюжарден /Jean Dujardin/, Лорен Лукас /Laurent Lucas/, Аньес Бланшо /Agnès Blanchot/, Орельен Рекуан /Aurélien Recoing/, Жак Франц /Jacques Frantz/, Жан-Франсуа Гарро /Jean-François Garreaud/, Жан-Пьер Кассель /Jean-Pierre Cassel/, Александра Гонсальвес /Alexandra Goncalvez/, Клодин Винсент /Claudine Vincent/, Кэролайн Сантини /Caroline Santini/

О фильме:
Вращающийся в высших кругах капитан полиции Ричард Малиновски имеет всё, о чём можно только мечтать: у него успешная карьера, любимые жена и дочь - жизнь без проблем. Однажды, когда Ричард собирается провести свободное время со своей дочерью, раздаётся телефонный звонок и полицейскому приходится ехать по срочному заданию. Вернувшись, он находит свою дочь мертвой...



Страна: Франция
Продолжительность: 01:20:14
Перевод: Дублированный

Общее
Уникальный идентификатор : 170881753775569176359756666576406309872 (0x808EA0EF81A2F5FEB9B356D44057EBF0)
Полное имя : D:Contre.Enquete.720p.HDTVRip.x264.mr.Doff.mkv
Формат : Matroska
Версия формата : Version 1
Размер файла : 4,62 Гбайт
Продолжительность : 1 ч. 20 м.
Общий поток : 8252 Кбит/сек
Дата кодирования : UTC 2009-05-07 16:38:05
Программа кодирования : mkvmerge v2.4.0 ('Fumbling Towards Ecstasy') built on Oct 11 2008 20:13:15
Библиотека кодирования : libebml v0.7.7 + libmatroska v0.8.1

Видео
Идентификатор : 1
Формат : AVC
Формат/Информация : Advanced Video Codec
Профиль формата : Main@L5.1
Параметр CABAC формата : Да
Параметр RefFrames формата : 1 кадр
Идентификатор кодека : V_MPEG4/ISO/AVC
Продолжительность : 1 ч. 20 м.
Битрейт : 7418 Кбит/сек
Ширина : 1280 пикселей
Высота : 544 пикселя
Соотношение сторон : 2,35:1
Режим частоты кадров : Постоянный
Частота кадров : 25,000 кадров/сек
Цветовое пространство : YUV
Субдискретизация насыщенности : 4:2:0
Битовая глубина : 8 бит
Тип развёртки : Прогрессивная
Бит/(Пиксели*Кадры) : 0.426
Размер потока : 4,07 Гбайт (88%)
Библиотека кодирования : x264 core 57 svn-709C
Настройки программы : cabac=1 / ref=1 / deblock=1:0:0 / analyse=0x1:0x111 / me=hex / fpel_cmp=sad / subme=5 / me-prepass=0 / brdo=0 / mixed_ref=0 / me_range=16 / chroma_me=1 / trellis=0 / 8x8dct=0 / cqm=0 / deadzone=21,11 / chroma_qp_offset=0 / threads=3 / nr=0 / decimate=1 / mbaff=0 / bframes=0 / keyint=250 / keyint_min=25 / scenecut=40(pre) / rc=2pass / bitrate=7418 / ratetol=1.0 / rceq='blurCplx^(1-qComp)' / qcomp=0.60 / qpmin=10 / qpmax=51 / qpstep=4 / cplxblur=20.0 / qblur=0.5 / ip_ratio=1.40
Язык : English
Default : Да
Forced : Нет

Аудио #1
Идентификатор : 2
Формат : AC-3
Формат/Информация : Audio Coding 3
Параметр Endianness формата : Big
Идентификатор кодека : A_AC3
Продолжительность : 1 ч. 20 м.
Вид битрейта : Постоянный
Битрейт : 448 Кбит/сек
Каналы : 6 каналов
Расположение каналов : Front: L C R, Side: L R, LFE
Частота : 48,0 КГц
Частота кадров : 31,250 кадров/сек (1536 SPF)
Битовая глубина : 16 бит
Метод сжатия : С потерями
Размер потока : 257 Мбайт (5%)
Язык : Russian
ServiceKind/String : Complete Main
Default : Да
Forced : Нет

Аудио #2
Идентификатор : 3
Формат : AC-3
Формат/Информация : Audio Coding 3
Параметр Endianness формата : Big
Идентификатор кодека : A_AC3
Продолжительность : 1 ч. 20 м.
Вид битрейта : Постоянный
Битрейт : 384 Кбит/сек
Каналы : 6 каналов
Расположение каналов : Front: L C R, Side: L R, LFE
Частота : 48,0 КГц
Частота кадров : 31,250 кадров/сек (1536 SPF)
Битовая глубина : 16 бит
Метод сжатия : С потерями
Размер потока : 220 Мбайт (5%)
Язык : French
ServiceKind/String : Complete Main
Default : Нет
Forced : Нет

Файл
Кодек: (x.264)
Качество: HDTVRip
Видео: 1280x544 (2.35:1), 25.000 fps, AVC, ~7418 Kbps, 0.426 bits/pixel

Аудио #1: Russian, 48.0 KHz, AC3, 6 ch, 448 Kbps
Аудио #2: French, 48.0 KHz, AC3, 6 ch, 384 Kbps



Скачать Встречное.расследование.Contre.enquete.(Франк.Манкусо).[2007.криминал.драма.HDTVRip].[720p].[Dub]+[French].torrent без регистрации
Золото ЗОЛОТАЯ РАЗДАЧА! СКАЧАННОЕ НЕ ЗАСЧИТЫВАЕТСЯ! Золото
Дата: Зарегистрирован   [ Тип: внутренний ] Как тут cкачать?
MAGNET ссылка
MAGNET ссылка


Скачать .torrent

24 KB

Статус: проверено DHT
Скачан: торрент - 22 раз, раздача полностью - 16 раз
Размер: 4,62 GB
Оценка:  - (Голосов: 0)
Поблагодарили: 1
Поделиться ссылкой на эту раздачу с друзьями:
В контактеFacebookОдноклассникиTwitterLivejournalМой МирLiveinternet
 

 
Показать сообщения:    


Вы не можете начинать темы
Вы не можете отвечать на сообщения
Вы не можете редактировать свои сообщения
Вы не можете удалять свои сообщения
Вы не можете голосовать в опросах
Вы не можете прикреплять файлы к сообщениям
Вы можете скачивать файлы