Loading...
Error

Скачать Затоiчи / Zatôichi (Такеши Китано) [2003, боевик, комедия, BDRip-AVC] [Dub]+[AVO (Goblin)] торрент без регистрации

Статистика раздачи
Размер:  4,17 GB   |    Скачан:  15 раз

Полного источника не было: 21 минута

 
 
 
Автор Сообщение

Marsianka

[] 



Информация о фильме
Название: Затоiчи
Оригинальное название: Zatôichi
Год выхода: 2003
Жанр: боевик, комедия
Режиссер: Такеши Китано / Takeshi Kitano
В ролях: Такеши Китано (под именем Бит Такеши), Таданобу Асано, Мичийо Оокусу, Гадаруканару Така, Дайгору Тачибана, Юуко Дайке, Юи Натсукава

О фильме:
Япония, XIX век. Затоичи – слепой странник, который зарабатывает на жизнь игрой в кости и массажем. Но за этим скромным фасадом скрывается боец, искусно владеющий мечом, обладающий молниеносной реакцией и наносящий удары с потрясающей точностью. Затоичи приходит в расположенный высоко в горах городок, находящийся во власти шайки Гиндзо. Безжалостный Гиндзо уничтожает всех, кто становится у него на пути, а с тех пор, как в шайку вступил могучий самурай-ронин Хаттори, делает это молниеносно. В игорном заведении Затоичи и его верный юный друг Синкити знакомятся с двумя гейшами. Столь же опасные, сколь и красивые Окину и ее сестра Осеи пришли в город, чтобы отомстить за убийство своих родителей. Сестрам-гейшам известно лишь таинственное имя Кутинава, но у них в запасе есть масса хитроумных уловок. В скором времени зловещие приспешники Гиндзо начинают охотиться за Затоичи. Затоичи и его легендарному мечу предстоят многочисленные схватки не на жизнь, а на смерть...



Страна: Япония
Студия: MIRAMAX
Продолжительность: 1:55:59
Перевод: Профессиональный (полное дублирование) , Авторский одноголосый закадровый

Файл
Кодек: x264
Качество: BDRip-AVC [ZATOICHI_[MIRAMAX]_BD-Remux]
Видео: 1022x554; ~4243 kbps; 24.000 fps; 1.85:1; 0.312 bit/pixel
Звук #1: AC3 Dolby Digital; 448.00 kbps, 6 Ch - RUS DUB
Звук #2: AC3 Dolby Digital; 448.00 kbps, 6 Ch - RUS AVO (Goblin)
Субтитры: Нет


General
Unique ID : 316440435083803333600734389659731751680 (0xEE103601198F07E428D7CA0E0E87F300)
Complete name : F:FILMSЗатоiчи_2003_BDRIP-AVC_[-=DoMiNo=-].mkv
Format : Matroska
Format version : Version 4 / Version 2
File size : 4.17 GiB
Duration : 1 h 55 min
Overall bit rate : 5 142 kb/s
Movie name : Затоiчи
Deion : Япония, XIX век. Затоичи - слепой странник, который зарабатывает на жизнь игрой в кости и массажем. Но за этим скромным фасадом скрывается боец, искусно владеющий мечом, обладающий молниеносной реакцией и наносящий удары с потрясающей точностью. Затоичи приходит в расположенный высоко в горах городок, находящийся во власти шайки Гиндзо. Безжалостный Гиндзо уничтожает всех, кто становится у него на пути, а с тех пор, как в шайку вступил могучий самурай-ронин Хаттори, - делает это молниеносно. В игорном заведении Затоичи и его верный юный друг Синкити знакомятся с двумя гейшами. Столь же опасные, сколь и красивые, Окину и её сестра Осей пришли в город, чтобы отомстить за убийство своих родителей. Сестрам-гейшам известно лишь таинственное имя Кутинава, но у них в запасе есть масса хитроумных уловок.В скором времени зловещие приспешники Гиндзо начинают охотиться за Затоичи. Затоичи и его легендарному мечу предстоят многочисленные схватки не на жизнь, а на смерть...
Encoded date : UTC 2018-02-05 12:54:21
Writing application : mkvmerge v20.0.0 ('I Am The Sun') 64-bit
Writing library : libebml v1.3.5 + libmatroska v1.4.8 / Lavf57.71.100
Attachments : poster.jpg
ACTORS : Такеши Китано, Таданобу Асано, Митиё Оокусу, Така Гуадалканал, Дайгоро Татибана, Юуко Дайкэ, Юи Нацукава, Иттоку Кисибэ, Сабуро Исикура, Акира Эмото, Бэн Хиура, Кодзи Миура, Хидебо, Рон II, Судзи, Нориясу, Макото Асикава, Эдамамэ Цумами, Косукэ Охта, Ёсиюки Морисита, Наомаса Мусака, Сёкэн Кунимото, Дайгаку Секине, Кодзи Коикэ, Кодзи Кирю, Таики Кобаяси, Аяно Ёсида, Тайти Саотомэ, Кандзи Цуда, Икки Гото, Ёсио Накамура, Хироаки Ногучи, Синити Накатсу, Тору Йонезу, П. Мэн, Аль Китаго, Омия Номацу, Цутому Такесиге, Ганбино Кобаяси, Сэмми Моремор мл., Мухоматсу, Ясуси Хигути, Рюки Китаока, Исао Огура, Масаёси Охдзэки, Кэндзи Такэти, Ёдзи Танака
COMPOSER : Кэйити Судзуки
COUNTRY : Япония
DATE : 2003
DIRECTOR : Такеши Китано
ENCODING_INFO : BluRay > MKV Пользовательский / H264 > X264 CRF 19.0 Пользовательский
GENRE : боевик, драма, комедия, криминал, музыка
HD_VIDEO : 1
IMDB_RATING : 7.60
ITUNEXTC : mpaa|R|400|
Language : und
MEDIA_TYPE : 9
ORIGINAL_TITLE : Zatôichi
PRODUCER : Макото Какураи, Синдзи Комия, Джек Маэби, Масаюки Мори, Тиэко Саито, Тсунехиса Саито, Масанори Санада, Такио Ёсида
RATING : 7.669
WRITER : Такеши Китано, Кан Симодзава

Video
ID : 1
Format : AVC
Format/Info : Advanced Video Codec
Format profile : High@L4.1
Format settings : CABAC / 11 Ref Frames
Format settings, CABAC : Yes
Format settings, ReFrames : 11 frames
Codec ID : V_MPEG4/ISO/AVC
Duration : 1 h 55 min
Bit rate : 4 243 kb/s
Width : 1 022 pixels
Height : 554 pixels
Display aspect ratio : 1.85:1
Frame rate mode : Constant
Frame rate : 24.000 FPS
Color space : YUV
Chroma subsampling : 4:2:0
Bit depth : 8 bits
Scan type : Progressive
Bits/(Pixel*Frame) : 0.312
Stream size : 3.44 GiB (83%)
Title : RIP_BY_-=DoMiNo=-
Writing library : x264 core 155 r2901M 7d0ff22
Encoding settings : cabac=1 / ref=11 / deblock=1:-3:-3 / analyse=0x3:0x133 / me=umh / subme=11 / psy=1 / psy_rd=1.00:0.10 / mixed_ref=1 / me_range=32 / chroma_me=1 / trellis=2 / 8x8dct=1 / cqm=0 / deadzone=21,11 / fast_pskip=1 / chroma_qp_offset=-3 / threads=6 / lookahead_threads=1 / sliced_threads=0 / nr=0 / decimate=1 / interlaced=0 / bluray_compat=0 / constrained_intra=0 / bframes=12 / b_pyramid=2 / b_adapt=2 / b_bias=0 / direct=3 / weightb=1 / open_gop=0 / weightp=2 / keyint=240 / keyint_min=24 / scenecut=40 / intra_refresh=0 / rc_lookahead=60 / rc=crf / mbtree=1 / crf=19.0 / qcomp=0.60 / qpmin=0 / qpmax=69 / qpstep=4 / ip_ratio=1.40 / aq=1:1.00
Language : Japanese
Default : Yes
Forced : No
Color range : Limited
Color primaries : BT.709
Transfer characteristics : BT.709
Matrix coefficients : BT.709

Audio #1
ID : 2
Format : AC-3
Format/Info : Audio Coding 3
Codec ID : A_AC3
Duration : 1 h 55 min
Bit rate mode : Constant
Bit rate : 448 kb/s
Channel(s) : 6 channels
Channel positions : Front: L C R, Side: L R, LFE
Sampling rate : 48.0 kHz
Frame rate : 31.250 FPS (1536 SPF)
Bit depth : 16 bits
Compression mode : Lossy
Stream size : 372 MiB (9%)
Title : DUB
Language : Russian
Service kind : Complete Main
Default : Yes
Forced : No

Audio #2
ID : 3
Format : AC-3
Format/Info : Audio Coding 3
Codec ID : A_AC3
Duration : 1 h 55 min
Bit rate mode : Constant
Bit rate : 448 kb/s
Channel(s) : 6 channels
Channel positions : Front: L C R, Side: L R, LFE
Sampling rate : 48.0 kHz
Frame rate : 31.250 FPS (1536 SPF)
Bit depth : 16 bits
Compression mode : Lossy
Stream size : 372 MiB (9%)
Title : AVO_(Дмитрий "Гоблин" Пучков)
Language : Russian
Service kind : Complete Main
Default : No
Forced : No

Menu
00:00:00.000 : :Глава 1
00:03:56.583 : :Глава 2
00:06:33.583 : :Глава 3
00:10:23.208 : :Глава 4
00:15:17.041 : :Глава 5
00:20:04.458 : :Глава 6
00:25:52.583 : :Глава 7
00:29:18.875 : :Глава 8
00:35:44.083 : :Глава 9
00:44:49.166 : :Глава 10
00:49:32.333 : :Глава 11
00:56:18.208 : :Глава 12
01:01:52.791 : :Глава 13
01:13:17.750 : :Глава 14
01:18:48.250 : :Глава 15
01:25:42.833 : :Глава 16
01:33:10.791 : :Глава 17
01:40:46.291 : :Глава 18
01:49:03.375 : :Глава 19
01:52:48.083 : :Глава 20





Скачать Затоiчи.Zatôichi.(Такеши.Китано).[2003.боевик.комедия.BDRip-AVC].[Dub]+[AVO.(Goblin)].torrent без регистрации
Золото ЗОЛОТАЯ РАЗДАЧА! СКАЧАННОЕ НЕ ЗАСЧИТЫВАЕТСЯ! Золото
Дата: Зарегистрирован   [ Тип: внутренний ] Как тут cкачать?
MAGNET ссылка
MAGNET ссылка


Скачать .torrent

11 KB

Статус: проверено DHT
Скачан: торрент - 15 раз, раздача полностью - 0 раз
Размер: 4,17 GB
Оценка:  - (Голосов: 0)
Поблагодарили: 0
Поделиться ссылкой на эту раздачу с друзьями:
В контактеFacebookОдноклассникиTwitterLivejournalМой МирLiveinternet
 

 
Показать сообщения:    


Вы не можете начинать темы
Вы не можете отвечать на сообщения
Вы не можете редактировать свои сообщения
Вы не можете удалять свои сообщения
Вы не можете голосовать в опросах
Вы не можете прикреплять файлы к сообщениям
Вы можете скачивать файлы