Loading...
Error

Скачать Книга мертвых / Necronomicon (Кристоф Ганс, Сюскэ Канэко, Брайан Юзна) [1993, ужасы, фантастика, экранизация, Blu-Ray Remux] [1080p] [DVO]+[AVO]+[Eng]+[Sub Rus, Eng]x2 торрент без регистрации

Статистика раздачи
Размер:  19,61 GB   |    Скачан:  13 раз
Сидов:  1  [  0 KB/s  ]  
 
 
 
Автор Сообщение

Marsianka

[] 

Информация о фильме
Название: Книга мертвых
Оригинальное название: Necronomicon
Год выхода: 1993
Жанр: ужасы, фантастика, экранизация
Режиссер: Кристоф Ганс, Сюскэ Канэко, Брайан Юзна
В ролях: Джеффри Комбс, Тони Азито, Хуан Фернандес, Брайан Юзна, Брюс Пэйн, Белинда Бауэр, Ричард Линч, Мария Форд, Питер Ясенский, Денис Д. Льюис

О фильме:
В поисках вдохновения Хауард Ф. Лавкрафт (классик литературы мистики и ужасов) отправляется в зловещее книгохранилище, где находится Некрономикон - легендарная книга мертвых. В ней писатель находит три истории: Утопленница - мрачную повесть первой любви и воскрешения; Холод - о гибельных поисках врача, жаждущего открыть секрет бессмертия; Шепот - о внеземных контактах смертельного вида. Когда же Лавкрафт пытается уйти, оказывается, что хранители Некрономикона охотно делятся секретами своей книги только за очень высокую цену. Фильм БРАЙЕНА ЮЗНА (Реаниматор, Невеста реаниматора, Возвращение живых мертвецов- 3) по рассказам Х.Ф. ЛАВКРАФТА снят в лучших традициях жанра, что и позволило ему попасть в кинопрокат США, в отличие от массы подделок, выпускаемых сразу на видео.


Страна: США
Студия: Davis-Films
Продолжительность: 01:36:40
Перевод: Профессиональный (двухголосый закадровый), авторский (одноголосый закадровый)

General
Unique ID : 190555234073345770557045469164376758394 (0x8F5B9A672197B9B48B845E4A41BD187A)
Complete name : D:DownloadNecronomicon.1993.mkv
Format : Matroska
Format version : Version 4 / Version 2
File size : 19.6 GiB
Duration : 1h 36mn
Overall bit rate mode : Variable
Overall bit rate : 29.0 Mbps
Encoded date : UTC 2016-04-04 09:14:30
Writing application : mkvmerge v7.3.0 ('Nouages') 64bit built on Oct 22 2014 18:53:34
Writing library : libebml v1.3.0 + libmatroska v1.4.1
DURATION : 01:28:48.962000000
NUMBER_OF_FRAMES : 740
NUMBER_OF_BYTES : 23857
_STATISTICS_WRITING_APP : mkvmerge v7.3.0 ('Nouages') 64bit built on Oct 22 2014 18:53:34
_STATISTICS_WRITING_DATE_UTC : 2016-04-04 09:14:30
_STATISTICS_TAGS : BPS DURATION NUMBER_OF_FRAMES NUMBER_OF_BYTES

Video
ID : 1
Format : AVC
Format/Info : Advanced Video Codec
Format profile : High@L4.1
Format settings, CABAC : Yes
Format settings, ReFrames : 2 frames
Codec ID : V_MPEG4/ISO/AVC
Duration : 1h 36mn
Bit rate mode : Variable
Bit rate : 26.3 Mbps
Width : 1 920 pixels
Height : 1 080 pixels
Display aspect ratio : 16:9
Frame rate : 23.976 fps
Color space : YUV
Chroma subsampling : 4:2:0
Bit depth : 8 bits
Scan type : Progressive
Bits/(Pixel*Frame) : 0.528
Stream size : 17.7 GiB (90%)
Default : Yes
Forced : No

Audio #1
ID : 2
Format : AC-3
Format/Info : Audio Coding 3
Mode extension : CM (complete main)
Codec ID : A_AC3
Duration : 1h 36mn
Bit rate mode : Constant
Bit rate : 448 Kbps
Channel(s) : 6 channels
Channel positions : Front: L C R, Side: L R, LFE
Sampling rate : 48.0 KHz
Bit depth : 16 bits
Compression mode : Lossy
Stream size : 310 MiB (2%)
Title : DVO
Language : Russian
Default : Yes
Forced : Yes

Audio #2
ID : 3
Format : AC-3
Format/Info : Audio Coding 3
Mode extension : CM (complete main)
Codec ID : A_AC3
Duration : 1h 36mn
Bit rate mode : Constant
Bit rate : 192 Kbps
Channel(s) : 2 channels
Channel positions : Front: L R
Sampling rate : 48.0 KHz
Bit depth : 16 bits
Compression mode : Lossy
Stream size : 133 MiB (1%)
Title : AVO (Гаврилов)
Language : Russian
Default : No
Forced : No

Audio #3
ID : 4
Format : DTS
Format/Info : Digital Theater Systems
Format profile : MA / Core
Codec ID : A_DTS
Duration : 1h 36mn
Bit rate mode : Variable
Bit rate : 1 561 Kbps / 1 510 Kbps
Channel(s) : 6 channels
Channel positions : Front: L C R, Side: L R, LFE
Sampling rate : 48.0 KHz
Bit depth : 16 bits
Compression mode : Lossless / Lossy
Language : English
Default : No
Forced : No

Text #1
ID : 5
Format : UTF-8
Codec ID : S_TEXT/UTF8
Codec ID/Info : UTF-8 Plain Text
Language : Russian
Default : No
Forced : No

Text #2
ID : 6
Format : UTF-8
Codec ID : S_TEXT/UTF8
Codec ID/Info : UTF-8 Plain Text
Language : English
Default : No
Forced : No

Menu
00:00:00.000 : en:Chapter 01
00:06:10.703 : en:Chapter 02
00:13:32.144 : en:Chapter 03
00:17:56.033 : en:Chapter 04
00:22:44.488 : en:Chapter 05
00:24:25.463 : en:Chapter 06
00:33:04.315 : en:Chapter 07
00:34:08.296 : en:Chapter 08
00:37:27.745 : en:Chapter 09
00:44:21.075 : en:Chapter 10
00:53:23.992 : en:Chapter 11
00:59:42.078 : en:Chapter 12
01:00:12.025 : en:Chapter 13
01:06:49.797 : en:Chapter 14
01:11:30.619 : en:Chapter 15
01:15:28.732 : en:Chapter 16
01:25:28.039 : en:Chapter 17
01:29:30.281 : en:Chapter 18

Файл
Кодек: x264
Качество: Blu-Ray Remux (1080p)
Видео: MPEG-4 AVC, 25967 Кбит/с , 1920х1080

Аудио 1: Russian (AC3, 5.1, 448 Кбит/с) / Профессиональный двухголосый (Lizard cinema trade)
Аудио 2: Russian (AC3, 2.0, 192 Кбит/с) / Авторский одноголосый (Гаврилов)
Аудио 3: English DTS-HD MA 5.1 / 48 kHz / 2290 kbps / 16-bit (DTS Core: 5.1 / 48 kHz / 1509 kbps / 16-bit)
Субтитры: Русские, английские



Скачать Книга.мертвых.Necronomicon.(Кристоф.Ганс.Сюскэ.Канэко.Брайан.Юзна).[1993.ужасы.фантастика.экранизация.Blu-Ray.Remux].[1080p].[DVO]+[AVO]+[Eng]+[Sub.Rus.Eng]x2.torrent без регистрации
Золото ЗОЛОТАЯ РАЗДАЧА! СКАЧАННОЕ НЕ ЗАСЧИТЫВАЕТСЯ! Золото
Дата: Зарегистрирован   [ Тип: внутренний ] Как тут cкачать?
MAGNET ссылка
MAGNET ссылка


Скачать .torrent

99 KB

Статус: проверено DHT
Скачан: торрент - 13 раз, раздача полностью - 1 раз
Размер: 19,61 GB
Оценка:  - (Голосов: 0)
Поблагодарили: 1
Поделиться ссылкой на эту раздачу с друзьями:
В контактеFacebookОдноклассникиTwitterLivejournalМой МирLiveinternet
 

 
Показать сообщения:    


Вы не можете начинать темы
Вы не можете отвечать на сообщения
Вы не можете редактировать свои сообщения
Вы не можете удалять свои сообщения
Вы не можете голосовать в опросах
Вы не можете прикреплять файлы к сообщениям
Вы можете скачивать файлы