Loading...
Error

Скачать Очаровательная проказница / La belle noiseuse (Жак Риветт) [1991, драма, BDRip] [720p] [MVO]+[Оригинал French]+[Sub Rus] торрент без регистрации

Статистика раздачи
Размер:  12,82 GB   |    Скачан:  10 раз
Сидов:  1  [  0 KB/s  ]  
 
 
 
Автор Сообщение

Marsianka

[] 

Информация о фильме
Название: Очаровательная проказница
Оригинальное название: La belle noiseuse
Год выхода: 1991
Жанр: драма
Режиссер: Жак Риветт
В ролях: Мишель Пикколи, Джейн Биркин, Эммануэль Беар, Марианн Деникур, Дэвид Бурштейн, Жиль Арбона, Мари Беллюк, Мари-Клод Роже, Лейла Ремили, Дафна Гудфеллоу, Бернард Дюфур

Описание: Драма о непростых взаимоотношениях художников и моделей. Известный в прошлом живописец, Френхофер живет уединенно в небольшой деревеньке на юге Франции. Его приезжает навестить молодой коллега-художник с юной подругой Марианной.

Увидев девушку, Френхофер решает закончить картину «Очаровательная проказница», работу над которой он начал много лет назад и бросил. Возвращение к творчеству и участие в процессе Марианны в качестве модели полностью меняет отношения в этом любовном треугольнике.



Страна: Франция, Швейцария
Продолжительность: 03:58:20
Профессиональный (многоголосый закадровый)
Субтитры: русские
Оригинальная аудиодорожка: французский
Файл
Качество: BDRip 720p
Видео: AVC / 984x720 / 4:3 / 24.0 fps / 6000 kbps / High@L4.1
Аудио 1: Rus / AC3 / 48.0 KHz / 2.0 / 192 kbps / MVO
Аудио 2: Fre / DTS / 48.0 KHz / 2.0 / 1509 kbps / 16 bit
Общее
Уникальный идентификатор : 316794719054299740763075080911865150573 (0xEE54718D7A83F7BA44BEE72E31AE7C6D)
Полное имя : La.belle.noiseuse.1991.BDRip.720p.mkv
Формат : Matroska
Версия формата : Version 4 / Version 2
Размер файла : 12,8 Гбайт
Продолжительность : 3 ч. 58 м.
Общий поток : 7703 Кбит/сек
Название фильма : La.belle.noiseuse.1991.BDRip.720p-porvaliparus
Дата кодирования : UTC 2018-02-05 21:44:30
Программа кодирования : mkvmerge v20.0.0 ('I Am The Sun') 64-bit
Библиотека кодирования : libebml v1.3.5 + libmatroska v1.4.8

Видео
Идентификатор : 1
Формат : AVC
Формат/Информация : Advanced Video Codec
Профиль формата : High@L4.1
Настройки формата : CABAC / 11 Ref Frames
Параметр CABAC формата : Да
Параметр RefFrames формата : 11 кадров
Идентификатор кодека : V_MPEG4/ISO/AVC
Продолжительность : 3 ч. 58 м.
Битрейт : 6000 Кбит/сек
Ширина : 984 пикселя
Высота : 720 пикселей
Соотношение сторон : 4:3
Режим частоты кадров : Постоянный
Частота кадров : 24,000 кадра/сек
Цветовое пространство : YUV
Субдискретизация насыщенности : 4:2:0
Битовая глубина : 8 бит
Тип развёртки : Прогрессивная
Бит/(Пиксели*Кадры) : 0.353
Размер потока : 9,99 Гбайт (78%)
Заголовок : La.belle.noiseuse.1991.BDRip.720p
Библиотека кодирования : x264 core 152 r2851 ba24899
Настройки программы : cabac=1 / ref=11 / deblock=1:-3:-3 / analyse=0x3:0x133 / me=umh / subme=11 / psy=1 / psy_rd=1.00:0.10 / mixed_ref=1 / me_range=32 / chroma_me=1 / trellis=2 / 8x8dct=1 / cqm=0 / deadzone=21,11 / fast_pskip=0 / chroma_qp_offset=-3 / threads=12 / lookahead_threads=3 / sliced_threads=0 / nr=0 / decimate=1 / interlaced=0 / bluray_compat=0 / constrained_intra=0 / bframes=10 / b_pyramid=2 / b_adapt=2 / b_bias=0 / direct=3 / weightb=1 / open_gop=0 / weightp=2 / keyint=250 / keyint_min=23 / scenecut=40 / intra_refresh=0 / rc_lookahead=40 / rc=2pass / mbtree=0 / bitrate=6000 / ratetol=1.0 / qcomp=0.60 / qpmin=0 / qpmax=69 / qpstep=4 / cplxblur=20.0 / qblur=0.5 / vbv_maxrate=50000 / vbv_bufsize=62500 / nal_hrd=none / filler=0 / ip_ratio=1.40 / pb_ratio=1.30 / aq=1:0.80
Default : Да
Forced : Нет

Аудио #1
Идентификатор : 2
Формат : AC-3
Формат/Информация : Audio Coding 3
Идентификатор кодека : A_AC3
Продолжительность : 3 ч. 58 м.
Вид битрейта : Постоянный
Битрейт : 192 Кбит/сек
Каналы : 2 канала
Расположение каналов : Front: L R
Частота : 48,0 КГц
Частота кадров : 31,250 кадров/сек (1536 SPF)
Битовая глубина : 16 бит
Метод сжатия : С потерями
Размер потока : 327 Мбайт (2%)
Заголовок : MVO
Язык : Russian
Default : Да
Forced : Нет

Аудио #2
Идентификатор : 3
Формат : DTS
Формат/Информация : Digital Theater Systems
Идентификатор кодека : A_DTS
Продолжительность : 3 ч. 58 м.
Вид битрейта : Постоянный
Битрейт : 1509 Кбит/сек
Каналы : 2 канала
Расположение каналов : Front: L R
Частота : 48,0 КГц
Частота кадров : 93,750 кадра/сек (512 SPF)
Битовая глубина : 16 бит
Метод сжатия : С потерями
Размер потока : 2,51 Гбайт (20%)
Язык : French
Default : Нет
Forced : Нет

Текст #1
Идентификатор : 4
Формат : UTF-8
Идентификатор кодека : S_TEXT/UTF8
Идентификатор кодека/Информация : UTF-8 Plain Text
Продолжительность : 3 ч. 56 м.
Битрейт : 41 бит/сек
ElementCount : 1458
Размер потока : 72,8 Кбайт (0%)
Язык : Russian
Default : Нет
Forced : Нет

Текст #2
Идентификатор : 5
Формат : UTF-8
Идентификатор кодека : S_TEXT/UTF8
Идентификатор кодека/Информация : UTF-8 Plain Text
Продолжительность : 3 ч. 53 м.
Битрейт : 26 бит/сек
ElementCount : 1742
Размер потока : 44,6 Кбайт (0%)
Язык : English
Default : Нет
Forced : Нет

Меню
00:00:00.000 : en:00:00:00.000
00:11:16.750 : en:00:11:16.750
00:20:04.667 : en:00:20:04.667
00:26:52.167 : en:00:26:52.167
00:36:55.375 : en:00:36:55.375
00:48:53.792 : en:00:48:53.792
00:58:47.000 : en:00:58:47.000
01:13:38.708 : en:01:13:38.708
01:26:27.958 : en:01:26:27.958
01:36:47.000 : en:01:36:47.000
01:52:58.708 : en:01:52:58.708
02:02:41.375 : en:02:02:41.375
02:14:14.125 : en:02:14:14.125
02:21:37.417 : en:02:21:37.417
02:34:30.333 : en:02:34:30.333
02:44:52.292 : en:02:44:52.292
02:55:34.500 : en:02:55:34.500
03:04:23.875 : en:03:04:23.875
03:17:10.458 : en:03:17:10.458
03:25:09.792 : en:03:25:09.792
03:30:07.458 : en:03:30:07.458
03:36:27.833 : en:03:36:27.833
03:42:15.125 : en:03:42:15.125
03:46:33.208 : en:03:46:33.208



Скачать Очаровательная.проказница.La.belle.noiseuse.(Жак.Риветт).[1991.драма.BDRip].[720p].[MVO]+[Оригинал.French]+[Sub.Rus].torrent без регистрации
Золото ЗОЛОТАЯ РАЗДАЧА! СКАЧАННОЕ НЕ ЗАСЧИТЫВАЕТСЯ! Золото
Дата: Зарегистрирован   [ Тип: внутренний ] Как тут cкачать?
MAGNET ссылка
MAGNET ссылка


Скачать .torrent

33 KB

Статус: проверено DHT
Скачан: торрент - 10 раз, раздача полностью - 0 раз
Размер: 12,82 GB
Оценка:  - (Голосов: 0)
Поблагодарили: 0
Поделиться ссылкой на эту раздачу с друзьями:
В контактеFacebookОдноклассникиTwitterLivejournalМой МирLiveinternet
 

 
Показать сообщения:    


Вы не можете начинать темы
Вы не можете отвечать на сообщения
Вы не можете редактировать свои сообщения
Вы не можете удалять свои сообщения
Вы не можете голосовать в опросах
Вы не можете прикреплять файлы к сообщениям
Вы можете скачивать файлы