Loading...
Error

Скачать Чёрная дыра / Pitch Black (Дэвид Туи) [2000, ужасы, фантастика, WEB-DL] [1080p] [Theatrical Cut] [Open Matte] [Dub]+[DVO]x2+[AVO]x2+[Eng]x2+[Sub Rus, Eng]x2 торрент без регистрации

Статистика раздачи
Размер:  13,59 GB   |    Скачан:  20 раз
Сидов:  1  [  193 KB/s  ]  
 
 
 
Автор Сообщение

Marsianka

[] 

Информация о фильме
Название: Чёрная дыра
Оригинальное название: Pitch Black
Год выпуска: 2000
Жанр: ужасы, фантастика
Режиссер: Дэвид Туи
В ролях: Вин Дизель (Richard B. Riddick), Рада Митчелл (Carolyn Fry), Коул Хаузер (William J. Johns), Кит Дэвид (Abu «Imam» al-Walid), Льюис Фиц-Джералд (Paris P. Ogilvie), Клаудия Блэк (Sharon «Shazza» Montgomery), Риана Гриффит (Jack / Jackie), Джон Мур (John «Zeke» Ezekiel), Саймон Бурк (Greg Owens), Лес Чэнтери (Suleiman), Сэм Сари (Hassan), Фирэсс Дирани (Ali)

О фильме:
В недалеком будущем космический корабль терпит бедствие, в результате чего совершает вынужденную посадку на отдаленной планете. Но в результате такой посадки погибает командир корабля, часть команды и большинство пассажиров.

Оставшиеся в живых оказываются одни на жуткой и безжизненной планете. Первое, что бросается в глаза — это то, что планета имеет три солнца, из-за чего все живое погибает в этой пустыне. Но как только планета погружается в темноту, появляются какие-то странные существа…



MPAA: R - Лицам до 17 лет обязательно присутствие взрослого

Страна: США
Студия: PolyGram Filmed Entertainment
Продолжительность: 01:48:22
Профессиональный (дублированный) R5 + Профессиональный (двухголосый, закадровый) по заказу Первого канала + Профессиональный (двухголосый, закадровый) Премьер Видео Фильм + Авторский (одноголосый, закадровый) Д."Гоблин"Пучков + Авторский (одноголосый, закадровый) С.Визгунов
Файл
Качество: WEB-DL 1080p | Open Matte
Формат: Matroska
Видео: 1920x1080 at 23.976 fps, MPEG-4 AVC, ~12700 kbps avg
Аудио #1: Russian: 48 kHz, AC3, 3/2 (L,C,R,l,r) + LFE ch, ~448 kbps avg |Дубляж, R5|
Аудио #2: Russian: 48 kHz, DTS, 2/0 (L,R) ch, ~768 kbps avg |Двухголосый закадровый, по заказу Первого канала|
Аудио #3: Russian: 48 kHz, AC3, 2/0 (L,R) ch, ~192 kbps avg |Двухголосый закадровый, Премьер Видео Фильм|
Аудио #4: Russian: 48 kHz, DTS 3/2 (L,C,R,l,r) + LFE ch, ~1509 kbps avg |Авторский, Д."Гоблин"Пучков|
Аудио #5: Russian: 48 kHz, AC3, 2/0 (L,R) ch, ~192 kbps avg |Авторский, С.Визгунов|
Аудио #6: English: 48 kHz DTS 3/2 (L,C,R,l,r) + LFE ch, ~1509 kbps avg
Аудио #7: English: 48 kHz E-AC3 3/2 (L,C,R,l,r) + LFE ch, ~640 kbps avg
Субтитры: Russian, English
***Исходник видео - Amazon.
***Релиз: spartanec163.
Cцены в пустыне снимались в тех же местах, что и сцены из фильма «Безумный Макс» (1979).
Космический корабль называется Hunter/Gratzner - так же, как и компания по созданию спецэффектов, которая сконструировала и построила эту модель.
Контактные линзы, которые носил Вин Дизель на сьёмках были ненастоящими. После первого дня сьёмок их не смогли вынуть. В результате пришлось посылать за оптиком в ближайший город, находящийся за три часа от места сьёмок.
Картина полностью снималась в Австралии.
Сиквел под названием «Хроники Риддика» (2004), также был снят Дэвидом Туи. В этом же году в продажу попал короткометражный аниме-мультфильм «Хроники Риддика: Тёмная ярость» (2004). «Тёмная ярость» стал связующим звеном между «Чёрной дырой» и «Хрониками Риддика».
Вышедшая спустя год редакторская версия фильма была на 3 минуты длинней оригинала.
В первоначальном сценарии Риддик был женщиной.
Уличные съемки проходили при температуре меньше 10 градусов, поэтому в перерывах между дублями актеры грелись возле осветительных ламп.
Съемки картины заняли 60 дней.
Основной образец, который исследует Кэролин Фрай: 76875/87/656.
Когда Риддик потянул непромокаемый брезент с одного из зданий, раскрывая Джека, из-за привязанной веревки с другой стороны Вин Дизель потянул мышцу.
Оружие, которое использует Джонс, - это дробовик Armscor M30R6, измененный, чтобы выглядеть футуристическим.
В одном из эпизодов показаны грузовые отсеки, выбрасываемые за борт судна перед крушением, один из отсеков пронумерован «2E», это ссылка на имя режиссера Дэвида Туи (David Twohy) от команды по спецэффектам.
Изначально в финале картины должен был погибнуть Ричард Риддик, но затем было решено «умертвить» Кэролин Фрай для того, чтобы иметь возможность продолжения фильма. Создатели засомневались, что образ Кэролин будет столь же притягателен, как образ Риддика.
Когда Кэролин видит, что Джонс вводит наркотик себе в глаз, она именует его как «обман» (hype). Это жаргонное слово также употреблялось в отношении наркоманов в 40-ых годах (в основном в отношении сидящих на героине).
Сцена, в которой Джонс вводит наркотик себе в глаз, была идеей Коула Хаузера.
Общее
Уникальный идентификатор : 172098660824004919533422479549444765775 (0x8178FF15D6D422C8AE5938896519B84F)
Полное имя : Pitch.Black.2000.Theatrical.Cut.Open.Matte.1080p.WEB-DL.5xRus.Eng.mkv
Формат : Matroska
Версия формата : Version 4 / Version 2
Размер файла : 13,6 Гбайт
Продолжительность : 1 ч. 48 м.
Режим общего битрейта : Переменный
Общий поток : 18,0 Мбит/сек
Название фильма : Pitch.Black.2000.Theatrical.Cut.Open.Matte.1080p.WEB-DL.5xRus.Eng
Дата кодирования : UTC 2018-02-05 16:54:01
Программа кодирования : mkvmerge v8.3.0 ('Over the Horizon') 64bit
Библиотека кодирования : libebml v1.3.1 + libmatroska v1.4.2

Видео
Идентификатор : 1
Формат : AVC
Формат/Информация : Advanced Video Codec
Профиль формата : High@L4.0
Параметр CABAC формата : Да
Параметр ReFrames формата : 4 кадра
Идентификатор кодека : V_MPEG4/ISO/AVC
Продолжительность : 1 ч. 48 м.
Вид битрейта : Переменный
Битрейт : 12,3 Мбит/сек
Максимальный битрейт : 15,0 Мбит/сек
Ширина : 1920 пикселей
Высота : 1080 пикселей
Соотношение сторон : 16:9
Режим частоты кадров : Постоянный
Частота кадров : 23,976 кадра/сек
Цветовое пространство : YUV
Субдискретизация насыщенности : 4:2:0
Битовая глубина : 8 бит
Тип развёртки : Прогрессивная
Бит/(Пиксели*Кадры) : 0.248
Размер потока : 9,34 Гбайт (69%)
Заголовок : WEB-DL 1080p (Amazon)
Язык : English
Default : Да
Forced : Нет
Основные цвета : BT.709
Характеристики трансфера : BT.709
Коэффициенты матрицы : BT.709

Аудио #1
Идентификатор : 2
Формат : AC-3
Формат/Информация : Audio Coding 3
Расширение режима : CM (complete main)
Параметр Endianness формата : Big
Идентификатор кодека : A_AC3
Продолжительность : 1 ч. 48 м.
Вид битрейта : Постоянный
Битрейт : 448 Кбит/сек
Каналы : 6 каналов
Расположение каналов : Front: L C R, Side: L R, LFE
Частота : 48,0 КГц
Битовая глубина : 16 бит
Метод сжатия : С потерями
Размер потока : 347 Мбайт (2%)
Заголовок : AC3 5.1 448Kbps (Дубляж - R5)
Язык : Russian
Default : Да
Forced : Нет

Аудио #2
Идентификатор : 3
Формат : DTS
Формат/Информация : Digital Theater Systems
Режим : 16
Параметр Endianness формата : Big
Идентификатор кодека : A_DTS
Продолжительность : 1 ч. 48 м.
Вид битрейта : Постоянный
Битрейт : 768 Кбит/сек
Каналы : 2 канала
Расположение каналов : Front: L R
Частота : 48,0 КГц
Битовая глубина : 24 бит
Метод сжатия : С потерями
Размер потока : 595 Мбайт (4%)
Заголовок : DTS 2.0 768Kbps (Профессиональный, двухголосый - BluRay / По заказу Первого канала)
Язык : Russian
Default : Нет
Forced : Нет

Аудио #3
Идентификатор : 4
Формат : AC-3
Формат/Информация : Audio Coding 3
Расширение режима : CM (complete main)
Параметр Endianness формата : Big
Идентификатор кодека : A_AC3
Продолжительность : 1 ч. 48 м.
Вид битрейта : Постоянный
Битрейт : 192 Кбит/сек
Каналы : 2 канала
Расположение каналов : Front: L R
Частота : 48,0 КГц
Битовая глубина : 16 бит
Метод сжатия : С потерями
Размер потока : 149 Мбайт (1%)
Заголовок : AC3 2.0 192Kbps (Профессиональный, двухголосый - Премьер Видео Фильм)
Язык : Russian
Default : Нет
Forced : Нет

Аудио #4
Идентификатор : 5
Формат : DTS
Формат/Информация : Digital Theater Systems
Режим : 16
Параметр Endianness формата : Big
Идентификатор кодека : A_DTS
Продолжительность : 1 ч. 48 м.
Вид битрейта : Постоянный
Битрейт : 1510 Кбит/сек
Каналы : 6 каналов
Расположение каналов : Front: L C R, Side: L R, LFE
Частота : 48,0 КГц
Битовая глубина : 24 бит
Метод сжатия : С потерями
Размер потока : 1,14 Гбайт (8%)
Заголовок : DTS 5.1 1509Kbps (Авторский, одноголосый - Д. "Гоблин" Пучков)
Язык : Russian
Default : Нет
Forced : Нет

Аудио #5
Идентификатор : 6
Формат : AC-3
Формат/Информация : Audio Coding 3
Расширение режима : CM (complete main)
Параметр Endianness формата : Big
Идентификатор кодека : A_AC3
Продолжительность : 1 ч. 48 м.
Вид битрейта : Постоянный
Битрейт : 192 Кбит/сек
Каналы : 2 канала
Расположение каналов : Front: L R
Частота : 48,0 КГц
Битовая глубина : 16 бит
Метод сжатия : С потерями
Размер потока : 149 Мбайт (1%)
Заголовок : AC3 2.0 192Kbps (Авторский, одноголосый - С. Визгунов)
Язык : Russian
Default : Нет
Forced : Нет

Аудио #6
Идентификатор : 7
Формат : DTS
Формат/Информация : Digital Theater Systems
Режим : 16
Параметр Endianness формата : Big
Идентификатор кодека : A_DTS
Продолжительность : 1 ч. 48 м.
Вид битрейта : Постоянный
Битрейт : 1510 Кбит/сек
Каналы : 6 каналов
Расположение каналов : Front: L C R, Side: L R, LFE
Частота : 48,0 КГц
Битовая глубина : 24 бит
Метод сжатия : С потерями
Размер потока : 1,14 Гбайт (8%)
Заголовок : DTS 5.1 1509Kbps (Оригинал - BluRay)
Язык : English
Default : Нет
Forced : Нет

Аудио #7
Идентификатор : 8
Формат : E-AC-3
Формат/Информация : Audio Coding 3
Параметр Endianness формата : Big
Идентификатор кодека : A_EAC3
Продолжительность : 1 ч. 48 м.
Вид битрейта : Постоянный
Битрейт : 640 Кбит/сек
Каналы : 6 каналов
Расположение каналов : Front: L C R, Side: L R, LFE
Частота : 48,0 КГц
Метод сжатия : С потерями
Размер потока : 496 Мбайт (4%)
Заголовок : E-AC3 5.1 640Kbps (Оригинал - Amazon)
Язык : English
Default : Нет
Forced : Нет

Текст #1
Идентификатор : 9
Формат : UTF-8
Идентификатор кодека : S_TEXT/UTF8
Идентификатор кодека/Информация : UTF-8 Plain Text
Заголовок : R5
Язык : Russian
Default : Нет
Forced : Нет

Текст #2
Идентификатор : 10
Формат : UTF-8
Идентификатор кодека : S_TEXT/UTF8
Идентификатор кодека/Информация : UTF-8 Plain Text
Заголовок : По вереводу Д. "Гоблина" Пучкова
Язык : Russian
Default : Нет
Forced : Нет

Текст #3
Идентификатор : 11
Формат : UTF-8
Идентификатор кодека : S_TEXT/UTF8
Идентификатор кодека/Информация : UTF-8 Plain Text
Заголовок : SDH, Amazon
Язык : English
Default : Нет
Forced : Нет



Скачать Чёрная.дыра.Pitch.Black.(Дэвид.Туи).[2000.ужасы.фантастика.WEB-DL].[1080p].[Theatrical.Cut].[Open.Matte].[Dub]+[DVO]x2+[AVO]x2+[Eng]x2+[Sub.Rus.Eng]x2.torrent без регистрации
Золото ЗОЛОТАЯ РАЗДАЧА! СКАЧАННОЕ НЕ ЗАСЧИТЫВАЕТСЯ! Золото
Дата: Зарегистрирован   [ Тип: внутренний ] Как тут cкачать?
MAGNET ссылка
MAGNET ссылка


Скачать .torrent

69 KB

Статус: проверено DHT
Скачан: торрент - 20 раз, раздача полностью - 7 раз
Размер: 13,59 GB
Оценка:  - (Голосов: 0)
Поблагодарили: 1
Поделиться ссылкой на эту раздачу с друзьями:
В контактеFacebookОдноклассникиTwitterLivejournalМой МирLiveinternet
 

 
Показать сообщения:    


Вы не можете начинать темы
Вы не можете отвечать на сообщения
Вы не можете редактировать свои сообщения
Вы не можете удалять свои сообщения
Вы не можете голосовать в опросах
Вы не можете прикреплять файлы к сообщениям
Вы можете скачивать файлы