Loading...
Error

Скачать Близкая зима / Vinterveien (Эрик Шёлдбьерг) [1993, короткометражка, драма, BDRemux] [1080р] [Оригинал Norwegian]+[Sub Rus, Eng]x2 торрент без регистрации

Статистика раздачи
Размер:  4,32 GB   |    Скачан:  11 раз
Сидов:  1  [  0 KB/s  ]  
 
 
 
Автор Сообщение

Marsianka

[] 

Информация о фильме
Название: Близкая зима
Оригинальное название: Vinterveien
Год выхода: 1993
Жанр: короткометражка, драма
Режиссер: Эрик Шёлдбьерг
В ролях: Рольф Сёдер, Стиг Хенрик Хофф, Эдда Шарп

Описание: По мотивам рассказа Роя Якобсена. Северная Норвегия. В гости к одинокому старику Альфу неожиданно приезжает племянник из Англии.



Страна: Норвегия
Продолжительность: 00:34:06
Субтитры: русские, английские (hardsub)
Оригинальная аудиодорожка: норвежский

Файл
Качество: BDRemux 1080р
Видео: MPEG-4 AVC Video, 1920x1080 at 23.976 fps, 18000 kbps
Звук: Norwegian: 48 kHz, AC3, 1.0 ch, 192 kbps
General
Unique ID : 251426262969173833045259808944687657470 (0xBD26EFD66F67D47888E1697B19C7B1FE)
Complete name : Vinterveien.1993.Criterion.BDRemux. rutrаcker.mkv
Format : Matroska
Format version : Version 2
File size : 4.32 GiB
Duration : 34mn 6s
Overall bit rate mode : Variable
Overall bit rate : 18.2 Mbps
Movie name : Release for RuTrackеr
Writing application : mkvmerge v5.0.1 ('Es ist Sommer') built on Nov 6 2011 16:23:40
Writing library : libebml v1.2.2 + libmatroska v1.3.0

Video
ID : 1
Format : AVC
Format/Info : Advanced Video Codec
Format profile : High@L4.1
Format settings, CABAC : Yes
Format settings, ReFrames : 4 frames
Codec ID : V_MPEG4/ISO/AVC
Duration : 34mn 6s
Bit rate mode : Variable
Bit rate : 17.6 Mbps
Maximum bit rate : 37.0 Mbps
Width : 1 920 pixels
Height : 1 080 pixels
Display aspect ratio : 16:9
Frame rate mode : Constant
Frame rate : 23.976 fps
Color space : YUV
Chroma subsampling : 4:2:0
Bit depth : 8 bits
Scan type : Progressive
Bits/(Pixel*Frame) : 0.354
Stream size : 4.19 GiB (97%)
Title : Vinterveien.1993.Criterion.BDRemux. rutrаcker
Language : Norwegian
Default : Yes
Forced : No

Audio
ID : 2
Format : AC-3
Format/Info : Audio Coding 3
Mode extension : CM (complete main)
Format settings, Endianness : Big
Codec ID : A_AC3
Duration : 34mn 6s
Bit rate mode : Constant
Bit rate : 192 Kbps
Channel(s) : 1 channel
Channel positions : Front: C
Sampling rate : 48.0 KHz
Bit depth : 16 bits
Compression mode : Lossy
Stream size : 46.8 MiB (1%)
Language : Norwegian
Default : Yes
Forced : No

Text
ID : 3
Format : UTF-8
Codec ID : S_TEXT/UTF8
Codec ID/Info : UTF-8 Plain Text
Language : Russian
Default : Yes
Forced : No



Скачать Близкая.зима.Vinterveien.(Эрик.Шёлдбьерг).[1993.короткометражка.драма.BDRemux].[1080р].[Оригинал.Norwegian]+[Sub.Rus.Eng]x2.torrent без регистрации
Золото ЗОЛОТАЯ РАЗДАЧА! СКАЧАННОЕ НЕ ЗАСЧИТЫВАЕТСЯ! Золото
Дата: Зарегистрирован   [ Тип: внутренний ] Как тут cкачать?
MAGNET ссылка
MAGNET ссылка


Скачать .torrent

23 KB

Статус: проверено DHT
Скачан: торрент - 11 раз, раздача полностью - 0 раз
Размер: 4,32 GB
Оценка:  - (Голосов: 0)
Поблагодарили: 0
Поделиться ссылкой на эту раздачу с друзьями:
В контактеFacebookОдноклассникиTwitterLivejournalМой МирLiveinternet
 

 
Показать сообщения:    


Вы не можете начинать темы
Вы не можете отвечать на сообщения
Вы не можете редактировать свои сообщения
Вы не можете удалять свои сообщения
Вы не можете голосовать в опросах
Вы не можете прикреплять файлы к сообщениям
Вы можете скачивать файлы