Loading...
Error

Скачать Эффект бабочки / The Butterfly Effect (Эрик Бресс, Дж. Макки Грубер) [2004, фантастика, триллер, BDRemux] [1080p] [Director's Cut] [Dub]+[DVO]+[AVO]x2+[Оригинал Eng]+[Sub Rus, Eng]x2 торрент без регистрации

Статистика раздачи
Размер:  22,46 GB   |    Скачан:  12 раз
Сидов:  1  [  0 KB/s  ]  
 
 
 
Автор Сообщение

Marsianka

[] 

Название: Эффект бабочки
Оригинальное название: The Butterfly Effect
Год выхода: 2004
Жанр: фантастика, триллер
Режиссер: Эрик Бресс, Дж. Макки Грубер
В ролях: Эштон Катчер, Эми Смарт, Мелора Уолтерс, Элден Хенсон, Уильям Ли Скотт, Джон Патрик Амедори, Ирен Горовая, Кевин Шмидт, Джесси Джеймс, Логан Лерман
О фильме: Мальчик Эван перенял от своего отца-психопата, ныне запертого в доме для умалишённых, странную болезнь — он не помнит некоторых эпизодов своей жизни, причем в эти моменты происходили довольно странные, а то и ужасные, события. Возмужав и поступив в колледж, Эван делает удивительное открытие. Читая дневники, которые он писал в детстве по совету врача, Эван может возвращаться в детство и своими действиями изменять будущее.

Страна: США, Канада
Студия: New Line Cinema
Продолжительность: 01:59:37

Формат: MKV
Качество: BDRemux 1080p
Видео: MPEG-4 AVC / 15000 kbps / 1920x1080 / 23.976 fps
профессиональный (дублированный), профессиональный (двухголосый), авторский (одноголосый)
Субтитры: русские, английские

#1. Russian: Dolby Digital Audio / 5.1 / 384 kbps - Дубляж (со вставками Tycoon)
#2. Russian: Dolby Digital Audio / 5.1 / 448 kbps - Двухголосый (Tycoon)
#3. Russian: DTS-HD Master Audio / 5.1 / 3703 kbps - Авторский (Гаврилов)
#4. Russian: DTS-HD Master Audio / 5.1 / 3840 kbps - Авторский (Есарев)
#5. English: DTS-HD Master Audio / 5.1 / 3568 kbps - Оригинал (Английский)
Format : Matroska
Format version : Version 2
File size : 22.5 GiB
Duration : 1 h 59 min
Overall bit rate mode : Variable
Overall bit rate : 26.9 Mb/s
Movie name : The Butterfly Effect (2004) BDRemux 1080p | Director's Cut
Encoded date : UTC 2018-02-06 15:44:26
Writing application : mkvmerge v4.9.1 ('Ich will') сборка от Jul 11 2011 23:53:15
Writing library : libebml v1.2.1 + libmatroska v1.1.1

Video
ID : 1
Format : AVC
Format/Info : Advanced Video Codec
Format profile : High@L4.1
Format settings, CABAC : Yes
Format settings, RefFrames : 4 frames
Format settings, GOP : M=3, N=12
Codec ID : V_MPEG4/ISO/AVC
Duration : 1 h 59 min
Bit rate mode : Variable
Maximum bit rate : 30.0 Mb/s
Width : 1 920 pixels
Height : 1 080 pixels
Display aspect ratio : 16:9
Frame rate mode : Constant
Frame rate : 23.976 (24000/1001) FPS
Standard : NTSC
Color space : YUV
Chroma subsampling : 4:2:0
Bit depth : 8 bits
Scan type : Progressive
Title : Эффект бабочки
Language : English
Default : Yes
Forced : No
Color range : Limited
Color primaries : BT.709
Transfer characteristics : BT.709
Matrix coefficients : BT.709

Audio #1
ID : 2
Format : AC-3
Format/Info : Audio Coding 3
Format settings, Endianness : Big
Codec ID : A_AC3
Duration : 1 h 59 min
Bit rate mode : Constant
Bit rate : 384 kb/s
Channel(s) : 6 channels
Channel positions : Front: L C R, Side: L R, LFE
Sampling rate : 48.0 kHz
Frame rate : 31.250 FPS (1536 SPF)
Bit depth : 16 bits
Compression mode : Lossy
Stream size : 329 MiB (1%)
Title : Дубляж (со вставки Tycoon)
Language : Russian
Service kind : Complete Main
Default : Yes
Forced : No

Audio #2
ID : 3
Format : AC-3
Format/Info : Audio Coding 3
Format settings, Endianness : Big
Codec ID : A_AC3
Duration : 1 h 59 min
Bit rate mode : Constant
Bit rate : 448 kb/s
Channel(s) : 6 channels
Channel positions : Front: L C R, Side: L R, LFE
Sampling rate : 48.0 kHz
Frame rate : 31.250 FPS (1536 SPF)
Bit depth : 16 bits
Compression mode : Lossy
Stream size : 383 MiB (2%)
Title : Двухголосый (Tycoon)
Language : Russian
Service kind : Complete Main
Default : No
Forced : No

Audio #3
ID : 4
Format : DTS
Format/Info : Digital Theater Systems
Format profile : MA / Core
Mode : 16
Format settings, Endianness : Big
Codec ID : A_DTS
Duration : 1 h 59 min
Bit rate mode : Variable / Constant
Bit rate : Unknown / 1 509 kb/s
Channel(s) : 6 channels
Channel positions : Front: L C R, Side: L R, LFE
Sampling rate : 48.0 kHz
Frame rate : 93.750 FPS (512 SPF)
Bit depth : 24 bits
Compression mode : Lossless / Lossy
Title : Авторский (Гаврилов)
Language : Russian
Default : No
Forced : No

Audio #4
ID : 5
Format : DTS
Format/Info : Digital Theater Systems
Format profile : MA / Core
Mode : 16
Format settings, Endianness : Big
Codec ID : A_DTS
Duration : 1 h 59 min
Bit rate mode : Variable / Constant
Bit rate : Unknown / 1 509 kb/s
Channel(s) : 6 channels
Channel positions : Front: L C R, Side: L R, LFE
Sampling rate : 48.0 kHz
Frame rate : 93.750 FPS (512 SPF)
Bit depth : 24 bits
Compression mode : Lossless / Lossy
Title : Авторский (Есарев)
Language : Russian
Default : No
Forced : No

Audio #5
ID : 6
Format : DTS
Format/Info : Digital Theater Systems
Format profile : MA / Core
Mode : 16
Format settings, Endianness : Big
Codec ID : A_DTS
Duration : 1 h 59 min
Bit rate mode : Variable / Constant
Bit rate : Unknown / 1 509 kb/s
Channel(s) : 6 channels
Channel positions : Front: L C R, Side: L R, LFE
Sampling rate : 48.0 kHz
Frame rate : 93.750 FPS (512 SPF)
Bit depth : 24 bits
Compression mode : Lossless / Lossy
Title : Оригинал
Language : English
Default : No
Forced : No

Text #1
ID : 7
Format : UTF-8
Codec ID : S_TEXT/UTF8
Codec ID/Info : UTF-8 Plain Text
Language : Russian
Default : No
Forced : No

Text #2
ID : 8
Format : UTF-8
Codec ID : S_TEXT/UTF8
Codec ID/Info : UTF-8 Plain Text
Language : English
Default : No
Forced : No

Menu
00:00:00.000 : en:The Beginning
00:06:29.014 : en:Two Fathers
00:11:17.677 : en:Six Years Later
00:16:29.197 : en:No Memory
00:22:48.576 : en:The Junkyard
00:26:49.900 : en:Seven Years Later
00:31:20.504 : en:Opening Up the Past
00:38:53.540 : en:Dinner Talk
00:44:16.028 : en:Unwanted Memories
00:51:03.185 : en:Healing Scars
00:54:35.481 : en:Fraternity Life
01:02:38.546 : en:A Special Night
01:09:47.308 : en:Incarcerated
01:16:08.189 : en:Breakout
01:20:27.197 : en:Day of Atonement
01:27:32.956 : en:Kayleigh Hears the Truth
01:34:01.344 : en:Sacrifices
01:42:03.951 : en:Saving Mom
01:47:12.843 : en:Institutionalized
01:51:03.365 : en:Final Solution
01:53:55.912 : en:End Credits



Скачать Эффект.бабочки.The.Butterfly.Effect.(Эрик.Бресс.Дж.Макки.Грубер).[2004.фантастика.триллер.BDRemux].[1080p].[Director's.Cut].[Dub]+[DVO]+[AVO]x2+[Оригинал.Eng]+[Sub.Rus.Eng]x2.torrent без регистрации
Золото ЗОЛОТАЯ РАЗДАЧА! СКАЧАННОЕ НЕ ЗАСЧИТЫВАЕТСЯ! Золото
Дата: Зарегистрирован   [ Тип: внутренний ] Как тут cкачать?
MAGNET ссылка
MAGNET ссылка


Скачать .torrent

113 KB

Статус: проверено DHT
Скачан: торрент - 12 раз, раздача полностью - 0 раз
Размер: 22,46 GB
Оценка:  - (Голосов: 0)
Поблагодарили: 0
Поделиться ссылкой на эту раздачу с друзьями:
В контактеFacebookОдноклассникиTwitterLivejournalМой МирLiveinternet
 

 
Показать сообщения:    


Вы не можете начинать темы
Вы не можете отвечать на сообщения
Вы не можете редактировать свои сообщения
Вы не можете удалять свои сообщения
Вы не можете голосовать в опросах
Вы не можете прикреплять файлы к сообщениям
Вы можете скачивать файлы