Loading...
Error

Скачать Темные времена / Darkest Hour (Джо Райт) [2017, драма, военный, BDRip] [720p] [DUB] [Лицензия / iTunes] торрент без регистрации

Статистика раздачи
Размер:  6,15 GB   |    Скачан:  139 раз
Сидов:  4  [  0 KB/s  ]  
 
 
 
Автор Сообщение

leon030982

[] 

Темные времена / Darkest Hour




Год выхода : 2017
Жанр : драма, военный
Страна : Великобритания
Продолжительность : 02:04:54
Перевод : Дубляж [Лицензия / iTunes]
Субтитры : русские, английские

Режиссер : Джо Райт

В главных ролях: Лили Джеймс, Гари Олдман, Бен Мендельсон, Кристин Скотт Томас, Стивен Диллэйн, Пип Торренс, Сэмюэл Уэст, Рональд Пикап, Ханна Стил, Эдриан Роулинз

Описание: История о первом и решающем шаге Уинстона Черчилля на посту премьер-министра Великобритании, получившего власть при чрезвычайных обстоятельствах. Успехи нацистской армии взбудоражили британское сообщество, но вопреки давлению и страху других политиков Черчилль отказывается идти на соглашение с Гитлером.



Файл
Качество : BDRip 720p
Формат видео : MKV
Видео : MPEG-4 AVC, 5895 Кбит/с, 1280x692
Звук : 48 kHz, AC3 Dolby Digital, 6 ch, ~384 kbps - DUB
Звук : 48 kHz, AC3 Dolby Digital, 6 ch, ~640 kbps - ENG
General
Unique ID : 169850317085295551261435242401922895994 (0x7FC7FB2E352CC1981A7932973821507A)
Complete name : C:\Video111\Darkest.Hour.2017.BDRip.720p.ExKinoRay.mkv
Format : Matroska
Format version : Version 4 / Version 2
File size : 6.15 GiB
Duration : 2 h 4 min
Overall bit rate : 7 053 kb/s
Movie name : Darkest Hour 2017 from ExKinoRay
Encoded date : UTC 2018-03-14 18:23:32
Writing application : mkvmerge v21.0.0 ('Tardigrades Will Inherit The Earth') 64-bit
Writing library : libebml v1.3.5 + libmatroska v1.4.8

Video
ID : 1
Format : AVC
Format/Info : Advanced Video Codec
Format profile : High@L4.1
Format settings : CABAC / 9 Ref Frames
Format settings, CABAC : Yes
Format settings, ReFrames : 9 frames
Codec ID : V_MPEG4/ISO/AVC
Duration : 2 h 4 min
Bit rate : 6 026 kb/s
Width : 1 280 pixels
Height : 692 pixels
Display aspect ratio : 1.85:1
Frame rate mode : Constant
Frame rate : 23.976 (24000/1001) FPS
Color space : YUV
Chroma subsampling : 4:2:0
Bit depth : 8 bits
Scan type : Progressive
Bits/(Pixel*Frame) : 0.284
Stream size : 5.26 GiB (85%)
Writing library : x264 core 124 r2197+666+28 3970b70 tMod+MixAQ [8-bit@4:2:0 X86]
Encoding settings : cabac=1 / ref=9 / deblock=1:-3:-3 / analyse=0x3:0x133 / me=umh / subme=11 / psy=1 / fade_compensate=0.00 / psy_rd=1.10:0.10 / mixed_ref=1 / me_range=32 / chroma_me=1 / trellis=2 / 8x8dct=1 / cqm=0 / deadzone=21,11 / fast_pskip=0 / chroma_qp_offset=-3 / threads=18 / sliced_threads=0 / nr=0 / decimate=0 / interlaced=0 / bluray_compat=0 / constrained_intra=0 / fgo=0 / bframes=12 / b_pyramid=2 / b_adapt=2 / b_bias=0 / direct=3 / weightb=1 / open_gop=0 / weightp=2 / keyint=250 / keyint_min=23 / scenecut=40 / intra_refresh=0 / rc=crf / mbtree=0 / crf=16.0000 / qcomp=0.80 / qpmin=0 / qpmax=69 / qpstep=4 / ip_ratio=1.30 / pb_ratio=1.20 / aq=1 / aq-strength=0.80 / aq-sensitivity=10.00 / aq-ifactor=1.00 / aq-pfactor=1.00 / aq-bfactor=1.00 / aq2=0 / zones=55,313,crf=12/336,477,crf=12/8397,9100,crf=14/11060,11090,crf=14/22208,22325,crf=13/23009,24046,crf=13/55712,56130,crf=13/64090,64339,crf=13/64385,65053,crf=13/67101,67542,crf=13/86885,87000,crf=13/87691,87796,crf=13/171187,178283,crf=25
Language : English
Default : Yes
Forced : No

Audio #1
ID : 2
Format : AC-3
Format/Info : Audio Coding 3
Codec ID : A_AC3
Duration : 2 h 4 min
Bit rate mode : Constant
Bit rate : 384 kb/s
Channel(s) : 6 channels
Channel positions : Front: L C R, Side: L R, LFE
Sampling rate : 48.0 kHz
Frame rate : 31.250 FPS (1536 SPF)
Bit depth : 16 bits
Compression mode : Lossy
Stream size : 343 MiB (5%)
Title : iTunes
Language : Russian
Service kind : Complete Main
Default : Yes
Forced : No

Audio #2
ID : 3
Format : AC-3
Format/Info : Audio Coding 3
Codec ID : A_AC3
Duration : 2 h 4 min
Bit rate mode : Constant
Bit rate : 640 kb/s
Channel(s) : 6 channels
Channel positions : Front: L C R, Side: L R, LFE
Sampling rate : 48.0 kHz
Frame rate : 31.250 FPS (1536 SPF)
Bit depth : 16 bits
Compression mode : Lossy
Stream size : 572 MiB (9%)
Title : Original
Language : English
Service kind : Complete Main
Default : No
Forced : No

Text #1
ID : 4
Format : UTF-8
Codec ID : S_TEXT/UTF8
Codec ID/Info : UTF-8 Plain Text
Duration : 1 h 58 min
Bit rate : 1 b/s
Count of elements : 19
Stream size : 1.64 KiB (0%)
Title : Forced
Language : Russian
Default : Yes
Forced : Yes

Text #2
ID : 5
Format : UTF-8
Codec ID : S_TEXT/UTF8
Codec ID/Info : UTF-8 Plain Text
Duration : 1 h 59 min
Bit rate : 105 b/s
Count of elements : 1680
Stream size : 91.6 KiB (0%)
Title : Full [focs]
Language : Russian
Default : No
Forced : No

Text #3
ID : 6
Format : UTF-8
Codec ID : S_TEXT/UTF8
Codec ID/Info : UTF-8 Plain Text
Duration : 1 h 59 min
Bit rate : 111 b/s
Count of elements : 1795
Stream size : 97.8 KiB (0%)
Title : Full [Leonid55]
Language : Russian
Default : No
Forced : No

Text #4
ID : 7
Format : UTF-8
Codec ID : S_TEXT/UTF8
Codec ID/Info : UTF-8 Plain Text
Duration : 1 h 57 min
Bit rate : 56 b/s
Count of elements : 1759
Stream size : 48.4 KiB (0%)
Title : Full
Language : English
Default : No
Forced : No

Text #5
ID : 8
Format : UTF-8
Codec ID : S_TEXT/UTF8
Codec ID/Info : UTF-8 Plain Text
Duration : 1 h 57 min
Bit rate : 58 b/s
Count of elements : 1805
Stream size : 49.8 KiB (0%)
Title : SDH
Language : English
Default : No
Forced : No

Text #6
ID : 9
Format : UTF-8
Codec ID : S_TEXT/UTF8
Codec ID/Info : UTF-8 Plain Text
Duration : 1 h 57 min
Bit rate : 68 b/s
Count of elements : 1814
Stream size : 58.4 KiB (0%)
Title : SDH Colored
Language : English
Default : No
Forced : No

Menu
00:00:00.000 : en:00:00:00.000
00:05:20.028 : en:00:05:20.028
00:10:17.951 : en:00:10:17.951
00:13:59.589 : en:00:13:59.589
00:22:33.060 : en:00:22:33.060
00:29:23.178 : en:00:29:23.178
00:37:09.519 : en:00:37:09.519
00:41:04.587 : en:00:41:04.587
00:48:26.904 : en:00:48:26.904
00:56:16.498 : en:00:56:16.498
01:02:38.463 : en:01:02:38.463
01:10:57.003 : en:01:10:57.003
01:18:41.467 : en:01:18:41.467
01:24:05.791 : en:01:24:05.791
01:30:25.629 : en:01:30:25.629
01:35:58.753 : en:01:35:58.753
01:39:33.968 : en:01:39:33.968
01:45:20.105 : en:01:45:20.105
01:52:55.227 : en:01:52:55.227
01:59:45.011 : en:01:59:45.011



Скачать Темные.времена.Darkest.Hour.(Джо.Райт).[2017.драма.военный.BDRip].[720p].[DUB].[Лицензия.iTunes].torrent без регистрации
Золото ЗОЛОТАЯ РАЗДАЧА! СКАЧАННОЕ НЕ ЗАСЧИТЫВАЕТСЯ! Золото
Дата: Зарегистрирован   [ Тип: внутренний ] Как тут cкачать?
MAGNET ссылка
MAGNET ссылка


Скачать .torrent

31 KB

Статус: проверено DHT
Скачан: торрент - 139 раз, раздача полностью - 388 раз
Размер: 6,15 GB
Оценка:  5 (Голосов: 1)
Поблагодарили: 6
Поделиться ссылкой на эту раздачу с друзьями:
В контактеFacebookОдноклассникиTwitterLivejournalМой МирLiveinternet
 

 
Показать сообщения:    


Вы не можете начинать темы
Вы не можете отвечать на сообщения
Вы не можете редактировать свои сообщения
Вы не можете удалять свои сообщения
Вы не можете голосовать в опросах
Вы не можете прикреплять файлы к сообщениям
Вы можете скачивать файлы