Loading...
Error

Скачать Темные времена / Darkest Hour (Джо Райт) [2017, драма, военный, WEB-DL] [720p] [Sub] (Rus) торрент без регистрации

Статистика раздачи
Размер:  3,94 GB   |    Скачан:  24 раза
Сидов:  1  [  59 KB/s  ]  
 
 
 
Автор Сообщение

leon030982

[] 

Темные времена / Darkest Hour




Год выхода : 2017
Жанр : драма, военный
Страна : Великобритания
Продолжительность : 02:05:59
Перевод : Русские субтитры *Focs*
Субтитры : русские, английские

Режиссер : Джо Райт

В главных ролях: Лили Джеймс, Гари Олдман, Бен Мендельсон, Кристин Скотт Томас, Стивен Диллэйн, Пип Торренс, Сэмюэл Уэст, Рональд Пикап, Ханна Стил, Эдриан Роулинз

Описание: История о первом и решающем шаге Уинстона Черчилля на посту премьер-министра Великобритании, получившего власть при чрезвычайных обстоятельствах. Успехи нацистской армии взбудоражили британское сообщество, но вопреки давлению и страху других политиков Черчилль отказывается идти на соглашение с Гитлером.



Файл
Качество : WEB-DL 720p
Формат видео : MKV
Видео : MPEG-4 AVC, 4517 Кбит/с, 1280x688
Звук : 48 kHz, AC3 Dolby Digital, 6 ch, ~384 kbps
Общее
Уникальный идентификатор : 303244827536400728456899683068076025388 (0xE422D45276993050B47D3BB5243AE62C)
Полное имя : H:\Films\Темные времена\The.Darkest.Hour.2017.720p.WEB-DL.H264.AC3.RUS.SUB.mkv
Формат : Matroska
Версия формата : Version 4 / Version 2
Размер файла : 3,94 Гбайт
Продолжительность : 2 ч. 4 м.
Общий поток : 4517 Кбит/сек
Название фильма : EVO
Дата кодирования : UTC 2018-02-07 18:07:07
Программа кодирования : mkvmerge v20.0.0 ('I Am The Sun') 64-bit
Библиотека кодирования : libebml v1.3.5 + libmatroska v1.4.8

Видео
Идентификатор : 1
Формат : AVC
Формат/Информация : Advanced Video Codec
Профиль формата : High@L3.1
Настройки формата : 2 Ref Frames
Параметр CABAC формата : Нет
Параметр RefFrames формата : 2 кадра
Идентификатор кодека : V_MPEG4/ISO/AVC
Продолжительность : 2 ч. 4 м.
Битрейт : 4131 Кбит/сек
Ширина : 1280 пикселей
Высота : 688 пикселей
Соотношение сторон : 1,85:1
Режим частоты кадров : Постоянный
Частота кадров : 23,976 (23976/1000) кадра/сек
Цветовое пространство : YUV
Субдискретизация насыщенности : 4:2:0
Битовая глубина : 8 бит
Тип развёртки : Прогрессивная
Бит/(Пиксели*Кадры) : 0.196
Размер потока : 3,60 Гбайт (91%)
Язык : English
Default : Да
Forced : Нет
Цветовой диапазон : Limited
Основные цвета : BT.709
Характеристики трансфера : BT.709
Коэффициенты матрицы : BT.709

Аудио
Идентификатор : 2
Формат : AC-3
Формат/Информация : Audio Coding 3
Идентификатор кодека : A_AC3
Продолжительность : 2 ч. 4 м.
Вид битрейта : Постоянный
Битрейт : 384 Кбит/сек
Каналы : 6 каналов
Расположение каналов : Front: L C R, Side: L R, LFE
Частота : 48,0 КГц
Частота кадров : 31,250 кадров/сек (1536 SPF)
Битовая глубина : 16 бит
Метод сжатия : С потерями
Размер потока : 343 Мбайт (9%)
Язык : English
ServiceKind/String : Complete Main
Default : Да
Forced : Нет

Текст #1
Идентификатор : 3
Формат : UTF-8
Идентификатор кодека : S_TEXT/UTF8
Идентификатор кодека/Информация : UTF-8 Plain Text
Продолжительность : 1 ч. 59 м.
Битрейт : 105 бит/сек
ElementCount : 1682
Размер потока : 91,8 Кбайт (0%)
Язык : Russian
Default : Нет
Forced : Нет

Текст #2
Идентификатор : 4
Формат : UTF-8
Идентификатор кодека : S_TEXT/UTF8
Идентификатор кодека/Информация : UTF-8 Plain Text
Продолжительность : 1 ч. 57 м.
Битрейт : 57 бит/сек
ElementCount : 1814
Размер потока : 49,7 Кбайт (0%)
Язык : English
Default : Да
Forced : Нет

Меню
00:00:00.000 : en:1
00:05:21.029 : en:2
00:10:18.951 : en:3
00:14:00.589 : en:4
00:22:34.060 : en:5
00:29:24.178 : en:6
00:37:10.519 : en:7
00:41:05.587 : en:8
00:48:27.904 : en:9
00:56:17.498 : en:10
01:02:39.463 : en:11
01:10:58.003 : en:12
01:18:42.467 : en:13
01:24:06.791 : en:14
01:30:26.629 : en:15
01:35:59.753 : en:16
01:39:34.968 : en:17
01:45:21.105 : en:18
01:52:56.226 : en:19
01:59:46.010 : en:20



Скачать Темные.времена.Darkest.Hour.(Джо.Райт).[2017.драма.военный.WEB-DL].[720p].[Sub].(Rus).torrent без регистрации
Золото ЗОЛОТАЯ РАЗДАЧА! СКАЧАННОЕ НЕ ЗАСЧИТЫВАЕТСЯ! Золото
Дата: Зарегистрирован   [ Тип: внутренний ] Как тут cкачать?
MAGNET ссылка
MAGNET ссылка


Скачать .torrent

20 KB

Статус: проверено DHT
Скачан: торрент - 24 раз, раздача полностью - 24 раз
Размер: 3,94 GB
Оценка:  - (Голосов: 0)
Поблагодарили: 2
Поделиться ссылкой на эту раздачу с друзьями:
В контактеFacebookОдноклассникиTwitterLivejournalМой МирLiveinternet
 

 
Показать сообщения:    


Вы не можете начинать темы
Вы не можете отвечать на сообщения
Вы не можете редактировать свои сообщения
Вы не можете удалять свои сообщения
Вы не можете голосовать в опросах
Вы не можете прикреплять файлы к сообщениям
Вы можете скачивать файлы