Loading...
Error

Скачать Акты насилия / Acts of Violence (Бретт Доноху) [2018, боевик, драма, BDRip-AVC] [MVO (HDrezka Studio)]+[Eng]+[Sub Eng] торрент без регистрации

Статистика раздачи
Размер:  2,33 GB   |    Скачан:  113 раз
Сидов:  51  [  0 KB/s  ]   Личеров:  1  [  0 KB/s  ]  
 
 
 
Автор Сообщение

МихаНЕзатор

[] 

Информация о фильме
Название: Акты насилия
Оригинальное название: Acts of Violence
Год выхода: 2018
Жанр: Боевик, драма
Режиссер: Бретт Доноху

В ролях: Брюс Уиллис, Коул Хаузер, Шон Эшмор, Эштон Холмс, Мелисса Болона, Шон Броснан, София Буш, Майк Эппс, Тиффани Броувер, Дженна Б. Келли

О фильме: Чтобы спасти свою невесту, которая попала в лапы торговцев людьми, Роман должен вспомнить свои военные навыки и объединить усилия с бывшими сослуживцами и жёстким полицейским, расследующим подобные дела.

Релиз от:

Страна: Великобритания, США
Студия: Colecar Productions, Emmett/Furla Films, River Bay Films
Продолжительность: 01:26:51
Перевод: Любительский многоголосый

Файл
Формат: MKV
Качество: BDRip-AVC
Видео: MPEG-4 AVC, 1024x426 (2.40:1), 23.976 fps, ~ 3010 kbps avg, 0.288 bit/pixel
Аудио 1: 48 kHz, AC3, 2.0, 384 Kbps | RUS |
Аудио 2: 48 kHz, AC3, 5.1, 448 Kbps | ENG |
Субтитры: Английские

Сохранены оригинальные чаптеры как на Blu-Ray.

Торрент обновлён, улучшен видеоряд и звук!
General
Unique ID : 214934809983698799438470065340899625303 (0xA1B2F04C46A494C6BB1816CA2E038957)
Complete name : D:Acts Of Violence 2018.MVO.BDRip.AVC.ExKinoRay.mkv
Format : Matroska
Format version : Version 2
File size : 2.33 GiB
Duration : 1 h 26 min
Overall bit rate : 3 840 kb/s
Movie name : Acts of Violence (2018) from ExKinoRay
Encoded date : UTC 2018-03-26 11:20:51
Writing application : mkvmerge v5.6.0 ('Kenya Kane') built on May 27 2012 16:44:04
Writing library : libebml v1.2.3 + libmatroska v1.3.0

Video
ID : 1
Format : AVC
Format/Info : Advanced Video Codec
Format profile : High@L4.1
Format settings, CABAC : Yes
Format settings, ReFrames : 12 frames
Codec ID : V_MPEG4/ISO/AVC
Duration : 1 h 26 min
Bit rate : 3 010 kb/s
Width : 1 024 pixels
Height : 426 pixels
Display aspect ratio : 2.40:1
Frame rate mode : Constant
Frame rate : 23.976 (23976/1000) FPS
Color space : YUV
Chroma subsampling : 4:2:0
Bit depth : 8 bits
Scan type : Progressive
Bits/(Pixel*Frame) : 0.288
Stream size : 1.78 GiB (76%)
Title : Enigma
Writing library : x264 core 152 r2851 ba24899
Encoding settings : cabac=1 / ref=12 / deblock=1:-2:-3 / analyse=0x3:0x113 / me=umh / subme=11 / psy=1 / psy_rd=1.05:0.10 / mixed_ref=1 / me_range=32 / chroma_me=1 / trellis=2 / 8x8dct=1 / cqm=0 / deadzone=21,11 / fast_pskip=0 / chroma_qp_offset=-3 / threads=12 / lookahead_threads=3 / sliced_threads=0 / nr=0 / decimate=0 / interlaced=0 / bluray_compat=0 / constrained_intra=0 / bframes=14 / b_pyramid=2 / b_adapt=2 / b_bias=0 / direct=3 / weightb=1 / open_gop=0 / weightp=2 / keyint=240 / keyint_min=23 / scenecut=40 / intra_refresh=0 / rc_lookahead=40 / rc=2pass / mbtree=0 / bitrate=3010 / ratetol=1.0 / qcomp=0.60 / qpmin=0 / qpmax=51 / qpstep=4 / cplxblur=20.0 / qblur=0.5 / vbv_maxrate=50000 / vbv_bufsize=62500 / nal_hrd=none / filler=0 / ip_ratio=1.40 / pb_ratio=1.30 / aq=3:0.90
Language : English
Default : Yes
Forced : No
Color range : Limited
Color primaries : BT.709
Transfer characteristics : BT.709
Matrix coefficients : BT.709

Audio #1
ID : 2
Format : AC-3
Format/Info : Audio Coding 3
Mode extension : CM (complete main)
Format settings, Endianness : Big
Codec ID : A_AC3
Duration : 1 h 26 min
Bit rate mode : Constant
Bit rate : 384 kb/s
Channel(s) : 2 channels
Channel positions : Front: L R
Sampling rate : 48.0 kHz
Frame rate : 31.250 FPS (1536 spf)
Compression mode : Lossy
Stream size : 239 MiB (10%)
Title : MVO (HDrezka Studio)
Language : Russian
Default : Yes
Forced : No

Audio #2
ID : 3
Format : AC-3
Format/Info : Audio Coding 3
Mode extension : CM (complete main)
Format settings, Endianness : Big
Codec ID : A_AC3
Duration : 1 h 26 min
Bit rate mode : Constant
Bit rate : 448 kb/s
Channel(s) : 6 channels
Channel positions : Front: L C R, Side: L R, LFE
Sampling rate : 48.0 kHz
Frame rate : 31.250 FPS (1536 spf)
Compression mode : Lossy
Stream size : 278 MiB (12%)
Language : English
Default : No
Forced : No

Text
ID : 4
Format : UTF-8
Codec ID : S_TEXT/UTF8
Codec ID/Info : UTF-8 Plain Text
Language : English
Default : No
Forced : No

Menu
00:00:00.000 : en:Chapter 1
00:05:06.764 : en:Chapter 2
00:10:30.463 : en:Chapter 3
00:14:41.380 : en:Chapter 4
00:19:55.569 : en:Chapter 5
00:26:09.067 : en:Chapter 6
00:34:49.420 : en:Chapter 7
00:38:44.113 : en:Chapter 8
00:42:26.126 : en:Chapter 9
00:49:25.295 : en:Chapter 10
00:54:08.245 : en:Chapter 11
01:00:57.945 : en:Chapter 12
01:07:16.407 : en:Chapter 13
01:11:36.709 : en:Chapter 14
01:18:07.974 : en:Chapter 15
01:20:39.042 : en:Chapter 16



Скачать Акты.насилия.Acts.of.Violence.(Бретт.Доноху).[2018.боевик.драма.BDRip-AVC].[MVO.(HDrezka.Studio)]+[Eng]+[Sub.Eng].torrent без регистрации
Золото ЗОЛОТАЯ РАЗДАЧА! СКАЧАННОЕ НЕ ЗАСЧИТЫВАЕТСЯ! Золото
Дата: Зарегистрирован   [ Тип: внешний ] Как тут cкачать?
MAGNET ссылка
MAGNET ссылка


Скачать .torrent

13 KB

Статус: проверено DHT
Скачан: торрент - 113 раз, раздача полностью - 24 раз
Размер: 2,33 GB
Оценка:  5 (Голосов: 1)
Поблагодарили: 4
Поделиться ссылкой на эту раздачу с друзьями:
В контактеFacebookОдноклассникиTwitterLivejournalМой МирLiveinternet
 

 
Показать сообщения:    


Вы не можете начинать темы
Вы не можете отвечать на сообщения
Вы не можете редактировать свои сообщения
Вы не можете удалять свои сообщения
Вы не можете голосовать в опросах
Вы не можете прикреплять файлы к сообщениям
Вы можете скачивать файлы